<?xml version="1.0" standalone="no"?>
<!DOCTYPE svg PUBLIC "-//W3C//DTD SVG 1.1//EN" "http://www.w3.org/Graphics/SVG/1.1/DTD/svg11.dtd">
<svg xmlns="http://www.w3.org/2000/svg">
<defs >
<font id="CormorantGaramond" horiz-adv-x="532" ><font-face
    font-family="Cormorant Garamond Light"
    units-per-em="1000"
    panose-1="0 0 4 0 0 0 0 0 0 0"
    ascent="924"
    descent="-287"
    alphabetic="0" />
<glyph unicode=" " glyph-name="space" horiz-adv-x="234" />
<glyph unicode="!" glyph-name="exclam" horiz-adv-x="243" d="M82 624T94 626T122 629Q137 629 149 627T161 621Q146 534 139 435T125 189Q125 187 120 187T115 189Q110 333 104 433T82 621Q82 624 94 626ZM100 -11T89 -1T78 28Q78 45 89 55T118 65Q137 65 147
55T157 28Q157 10 147 0T118 -11Q100 -11 89 -1Z" />
<glyph unicode="&quot;" glyph-name="quotedbl" horiz-adv-x="278" d="M47 609Q47 618 63 627T98 639T115 637L65 366Q64 364 60 363T55 365L47 609ZM187 609Q187 618 203 627T238 639T255 637L205 366Q204 364 200 363T195 365L187 609Z" />
<glyph unicode="#" glyph-name="numbersign" horiz-adv-x="526" d="M465 313T466 308T468 295Q468 288 467 282T463 276H388L359 115H428Q430 115 431 109T433 96Q433 89 432 83T428 77H352L325 -78Q325 -81 315 -81Q307 -81 299 -79T292 -75L319 77H165L138 -78Q138
-81 128 -81Q120 -81 112 -79T105 -75L132 77H63Q61 77 60 83T58 97Q58 104 59 109T62 115H139L167 276H98Q96 276 95 282T93 296Q93 302 94 307T97 313H174L204 482Q204 484 211 484Q219 484 228 482T236 476L207 313H361L391 482Q391 484 398 484Q406 484 415
482T423 476L394 313H463Q465 313 466 308ZM326 115L354 276H201L172 115H326Z" />
<glyph unicode="$" glyph-name="dollar" horiz-adv-x="408" d="M360 69T324 33T222 -11V-102Q222 -109 212 -109Q202 -109 202 -102V-12H195Q131 -12 83 22Q78 25 77 29T74 41L62 136Q61 140 67 141T74 138Q84 85 120 47T202 3V220L193 225Q154 246 130 262T90
302T74 360Q74 412 110 443T202 479V561Q202 565 205 567T212 569Q216 569 219 567T222 561V480Q263 480 312 457Q322 452 324 450T327 441L336 356Q336 352 331 351T324 354Q318 392 290 424T222 465V265L237 257Q277 236 301 220T343 179T360 120Q360 69 324
33ZM119 348T141 323T202 276V467H201Q163 467 141 444T119 384Q119 348 141 323ZM258 3T284 24T311 90Q311 130 288 157T222 209V2Q258 3 284 24Z" />
<glyph unicode="%" glyph-name="percent" horiz-adv-x="574" d="M98 303T64 340T29 433Q29 486 63 523T150 560Q202 560 235 523T268 430Q268 376 235 340T150 303Q98 303 64 340ZM103 -6Q99 -6 91 -1T83 6L454 550Q454 551 456 551Q461 551 469 546T476 538L105
-5L103 -6ZM192 313T203 340T215 423Q215 485 197 517T144 550Q108 550 95 520T82 436Q82 313 157 313Q192 313 203 340ZM375 -5T341 32T306 125Q306 178 340 215T427 253Q479 253 512 215T545 123Q545 68 512 32T427 -5Q375 -5 341 32ZM469 6T480 33T492 116Q492
242 421 242Q386 242 373 212T359 129Q359 6 434 6Q469 6 480 33Z" />
<glyph unicode="&amp;" glyph-name="ampersand" horiz-adv-x="692" d="M694 11T694 6T690 0H596Q546 0 448 78Q367 -12 244 -12Q184 -12 144 9T84 64T64 139Q64 198 100 242T203 334Q185 362 174 385Q146 449 146 494Q146 534 166 569T223 625T305 646Q350 646
384 624T418 547Q418 508 399 477T351 422T272 365L251 351Q325 235 467 127Q510 197 510 275Q510 306 497 321T441 337Q438 337 438 343T441 349L643 350Q647 350 647 344T643 338Q608 338 591 332T566 315T553 283Q526 187 480 118Q539 75 594 48T690 12Q694
11 694 6ZM194 450T244 363Q305 406 337 444T370 532Q370 577 346 602T280 627Q239 627 217 602T194 525Q194 450 244 363ZM326 13T366 32T437 87L426 96Q364 145 308 204T211 322Q167 289 143 253T118 168Q118 125 139 90T198 34T281 13Q326 13 366 32Z" />
<glyph unicode="&apos;" glyph-name="quotesingle" horiz-adv-x="138" d="M47 609Q47 618 63 627T98 639T115 637L65 366Q64 364 60 363T55 365L47 609Z" />
<glyph unicode="(" glyph-name="parenleft" horiz-adv-x="309" d="M70 446T124 559T274 725Q276 726 278 724T278 719Q201 648 165 545T129 304Q129 166 165 63T278 -111Q280 -112 278 -115T274 -117Q177 -63 124 49T70 304Q70 446 124 559Z" />
<glyph unicode=")" glyph-name="parenright" horiz-adv-x="309" d="M239 162T185 49T35 -117Q33 -118 31 -116T31 -111Q108 -40 144 63T180 304Q180 442 144 545T31 719Q29 720 31 723T35 725Q132 671 185 559T239 304Q239 162 185 49Z" />
<glyph unicode="*" glyph-name="asterisk" horiz-adv-x="448" d="M235 657Q235 666 252 675T287 687T303 685L236 529Q235 526 231 526T226 529L235 657ZM84 559Q71 564 71 603Q71 617 73 626T78 633L207 520Q210 519 208 515T204 511L84 559ZM251 503Q249 503
248 507T248 513L374 544Q383 546 396 533T418 504T421 488L251 503ZM127 382T116 382Q105 382 90 386T66 396T60 404L206 491L208 492Q210 492 212 489T214 485L131 387Q127 382 116 382ZM233 481Q232 483 236 486T241 488L310 378Q315 370 306 353T285 323T271
315L233 481Z" />
<glyph unicode="+" glyph-name="plus" horiz-adv-x="398" d="M366 208T367 203T369 190Q369 183 368 177T364 171H218V25Q218 23 211 22T196 20Q180 20 180 23V171H34Q32 171 31 177T29 191Q29 197 30 202T33 208H180V354Q180 356 186 357T199 359Q206 359 212
358T218 354V208H364Q366 208 367 203Z" />
<glyph unicode="," glyph-name="comma" horiz-adv-x="222" d="M131 62T147 41T164 -21Q164 -60 147 -93T95 -159Q94 -160 92 -160Q89 -160 87 -157T87 -152Q136 -102 136 -34Q136 -8 126 7Q119 -8 97 -8Q80 -8 71 1T61 27Q61 62 102 62Q131 62 147 41Z" />
<glyph unicode="-" glyph-name="hyphen" horiz-adv-x="323" d="M30 167T29 174T27 190Q27 207 30 207L291 254Q293 255 294 249T296 235Q296 228 295 222T291 215L32 168Q30 167 29 174Z" />
<glyph unicode="." glyph-name="period" horiz-adv-x="195" d="M80 -11T69 -1T58 28Q58 45 69 55T98 65Q117 65 127 55T137 28Q137 10 127 0T98 -11Q80 -11 69 -1Z" />
<glyph unicode="/" glyph-name="slash" horiz-adv-x="339" d="M61 -167T43 -162T26 -152L278 730Q280 735 297 729T313 718L62 -163Q61 -167 43 -162Z" />
<glyph unicode="0" glyph-name="zero" horiz-adv-x="477" d="M182 -13T136 14T63 88T37 196Q37 255 63 301T135 373T241 399Q299 399 344 373T414 299T440 193Q440 134 415 87T344 14T240 -13Q182 -13 136 14ZM315 -1T347 48T380 181Q380 281 337 334T230 387Q167
387 132 336T96 204Q96 146 115 99T169 26T251 -1Q315 -1 347 48Z" />
<glyph unicode="1" glyph-name="one" horiz-adv-x="332" d="M143 336T137 350T112 369T54 374Q51 374 51 380T54 386Q83 386 100 385L166 384L231 385Q248 386 278 386Q281 386 281 380T278 374Q240 374 222 369T196 349T189 305V81Q189 50 195 36T220 17T278
12Q281 12 281 6T278 0Q249 0 232 1L166 2L101 1Q84 0 54 0Q51 0 51 6T54 12Q92 12 110 17T136 37T143 81V305Q143 336 137 350Z" />
<glyph unicode="2" glyph-name="two" horiz-adv-x="402" d="M126 81T175 128T247 213T270 288Q270 330 244 354T178 379Q138 379 108 349T62 258Q62 257 58 257Q49 257 50 261L88 408Q88 410 92 410Q95 410 97 409T99 406Q98 402 98 396Q98 380 113 380Q122 380
143 387Q158 391 177 395T214 399Q264 399 293 372T323 299Q323 265 303 231T236 154T108 48Q104 45 105 43T112 41Q229 41 272 44T334 61T360 110Q361 112 366 112T372 109L358 11Q358 7 356 4T349 0H44Q40 0 37 4T37 12Q126 81 175 128Z" />
<glyph unicode="3" glyph-name="three" horiz-adv-x="388" d="M276 125T310 86T345 -8Q345 -58 314 -109T218 -205T60 -275Q56 -276 54 -271T55 -264Q177 -229 230 -160T283 -19Q283 34 256 71T170 109Q142 109 119 103Q116 102 114 108T116 115Q196 135 228 171T261
268Q261 319 238 349T167 379Q123 379 93 350T46 258Q45 257 42 257Q33 257 34 261L71 407Q73 409 75 409Q78 409 81 408T83 405Q81 397 81 394Q81 377 98 377Q109 377 128 385Q149 392 165 395T200 399Q254 399 285 366T316 285Q316 237 288 194T211 130Q276 125
310 86Z" />
<glyph unicode="4" glyph-name="four" horiz-adv-x="450" d="M414 43T415 37T417 22Q417 14 416 8T412 1Q379 3 323 5V-158Q323 -169 315 -172L283 -188Q277 -190 277 -190Q274 -190 274 -182V6Q211 8 28 8Q23 8 20 12T21 20L308 396Q310 398 314 398Q317 398
320 397T323 392V41Q348 41 412 43Q414 43 415 37ZM164 37T274 39V312L69 44Q66 41 67 39T74 37Q164 37 274 39Z" />
<glyph unicode="5" glyph-name="five" horiz-adv-x="409" d="M106 335T104 320L82 196Q220 195 284 146T349 9Q349 -48 321 -94T231 -184T68 -275H67Q63 -275 61 -271T62 -264Q189 -203 240 -141T292 -8Q292 75 234 121T68 167Q63 167 60 170T58 179L90 357Q91
364 93 365T103 368Q229 383 272 389T327 401T345 423Q346 426 351 426T356 421L336 357Q332 345 327 342T308 339L119 335Q106 335 104 320Z" />
<glyph unicode="6" glyph-name="six" horiz-adv-x="465" d="M364 282T396 247T428 159Q428 112 402 73T330 10T230 -13Q146 -13 98 45T49 208Q49 301 91 391T212 552T400 661Q404 662 406 657T405 650Q308 607 240 538T138 387T104 226Q104 131 145 68T258 5Q310
5 341 39T373 133Q373 188 346 222T267 257Q239 257 215 246T160 206Q159 205 157 205Q154 205 152 208T150 213Q205 282 296 282Q364 282 396 247Z" />
<glyph unicode="7" glyph-name="seven" horiz-adv-x="429" d="M155 -231T148 -237T138 -244L96 -275Q94 -276 91 -273T89 -268L357 338Q360 345 352 345Q202 345 144 341T67 324T37 277Q37 275 33 275Q30 275 28 276T26 280L58 413Q59 415 65 415T70 412Q69 408
69 402Q69 392 78 389T117 386H382Q386 386 389 382T391 373L159 -220Q155 -231 148 -237Z" />
<glyph unicode="8" glyph-name="eight" horiz-adv-x="489" d="M343 317T375 294T429 238T451 161Q451 112 423 72T347 10T242 -13Q185 -13 141 9T73 69T49 149Q49 210 90 263T190 346Q148 370 126 395T104 456Q104 494 128 520T188 560T260 574Q298 574 327 559T373
519T389 469Q389 437 365 404T294 342Q343 317 375 294ZM151 453T168 430T212 389T284 348Q312 373 325 397T339 453Q339 501 310 530T236 559Q199 559 175 539T151 483Q151 453 168 430ZM327 4T364 38T402 132Q402 180 379 214T323 271T237 320L202 339Q155 312
130 270T105 175Q105 131 126 92T185 28T270 4Q327 4 364 38Z" />
<glyph unicode="9" glyph-name="nine" horiz-adv-x="465" d="M131 110T99 130T52 180T37 244Q37 289 61 324T126 379T218 399Q278 399 322 370T391 287T416 164Q416 73 374 -15T253 -173T65 -275Q62 -276 60 -271T61 -264Q157 -226 225 -159T327 -12T361 144Q361
198 345 252T292 344T201 381Q151 381 122 350T92 262Q92 208 122 172T208 135Q236 135 257 143T305 174Q306 175 308 175Q311 175 314 172T316 167Q265 110 180 110Q131 110 99 130Z" />
<glyph unicode=":" glyph-name="colon" horiz-adv-x="195" d="M80 270T69 280T58 309Q58 326 69 336T98 346Q117 346 127 336T137 309Q137 291 127 281T98 270Q80 270 69 280ZM80 -11T69 -1T58 28Q58 45 69 55T98 65Q117 65 127 55T137 28Q137 10 127 0T98 -11Q80
-11 69 -1Z" />
<glyph unicode=";" glyph-name="semicolon" horiz-adv-x="222" d="M82 270T71 280T60 309Q60 326 71 336T100 346Q119 346 129 336T139 309Q139 291 129 281T100 270Q82 270 71 280ZM131 62T147 41T164 -21Q164 -60 147 -93T95 -159Q94 -160 92 -160Q89 -160 87
-157T87 -152Q136 -102 136 -34Q136 -8 126 7Q119 -8 97 -8Q80 -8 71 1T61 27Q61 62 102 62Q131 62 147 41Z" />
<glyph unicode="&lt;" glyph-name="less" horiz-adv-x="407" d="M377 61T377 41Q377 22 370 25L36 173Q31 176 31 190Q31 205 36 207L370 354Q373 356 375 352T377 339Q377 320 370 316L76 190L370 64Q377 61 377 41Z" />
<glyph unicode="=" glyph-name="equal" horiz-adv-x="468" d="M32 241T31 247T29 261Q29 267 30 272T33 278H434Q436 278 437 273T439 260Q439 253 438 247T434 241H34Q32 241 31 247ZM32 101T31 107T29 121Q29 127 30 132T33 138H434Q436 138 437 133T439 120Q439
113 438 107T434 101H34Q32 101 31 107Z" />
<glyph unicode="&gt;" glyph-name="greater" horiz-adv-x="407" d="M376 204T376 189Q376 175 371 172L37 25Q34 24 32 28T30 40Q30 48 32 55T37 63L331 189L37 315Q34 316 32 323T30 338Q30 346 32 351T37 354L371 206Q376 204 376 189Z" />
<glyph unicode="?" glyph-name="question" horiz-adv-x="327" d="M131 613T122 600T110 565Q106 547 99 537T76 527Q62 527 54 536T46 558Q46 585 80 605T161 625Q218 625 255 594T292 505Q292 463 275 436T221 372Q185 336 171 309T157 248Q157 225 163 193Q164
190 159 189T152 191Q141 217 134 252T126 310Q126 341 139 361T178 407Q206 434 220 457T235 517Q235 560 213 586T157 613Q131 613 122 600ZM128 -11T117 -1T106 28Q106 45 117 55T146 65Q165 65 175 55T185 28Q185 10 175 0T146 -11Q128 -11 117 -1Z" />
<glyph unicode="@" glyph-name="at" horiz-adv-x="717" d="M440 50T427 66T414 111Q414 118 416 136L428 199Q393 131 349 90T267 48Q245 48 231 62T217 107Q217 119 218 125Q226 179 259 232T335 320T418 354Q448 354 464 335Q475 346 478 361Q480 363 486 363Q498
363 496 360L455 136Q451 112 451 104Q451 86 459 77T488 68Q517 68 545 88T591 147T609 236Q609 299 577 352T488 437T364 468Q289 468 232 431T145 332T115 198Q115 120 150 61T247 -32T391 -65Q439 -65 474 -56T557 -20H558Q560 -20 562 -23T563 -28Q477 -95
360 -95Q280 -95 216 -63T114 30T76 173Q76 263 121 336T240 450T396 491Q468 491 524 461T610 378T641 264Q641 209 617 160T553 80T467 50Q440 50 427 66ZM316 81T348 109T405 181T441 269Q443 279 443 285Q443 305 431 318T396 331Q371 331 342 307T291 241T261
153Q258 135 258 122Q258 81 288 81Q316 81 348 109Z" />
<glyph unicode="A" glyph-name="A" horiz-adv-x="698" d="M698 12T698 6T694 0Q676 0 636 2Q598 4 580 4Q559 4 525 2Q493 0 477 0Q473 0 473 6T477 12Q518 12 536 19T554 45Q554 59 543 84L449 287H211L143 123Q129 89 129 67Q129 38 153 25T228 12Q233 12 233
6T228 0Q210 0 176 2Q138 4 110 4Q85 4 51 2Q21 0 2 0Q-3 0 -3 6T2 12Q30 12 49 22T86 58T124 132L333 635Q335 638 339 638T345 635L577 137Q600 86 618 60T653 23T694 12Q698 12 698 6ZM219 305H440L323 556L219 305Z" />
<glyph unicode="B" glyph-name="B" horiz-adv-x="549" d="M403 348T451 301T499 185Q499 131 474 88T405 21T308 -4Q274 -4 236 -1Q222 0 203 1T160 2L94 1Q76 0 44 0Q42 0 42 6T44 12Q84 12 102 17T128 36T135 81V544Q135 574 129 588T104 607T46 613Q43 613
43 619T46 625L94 624Q134 622 160 622Q178 622 194 623T222 625Q253 628 277 628Q360 628 399 591T439 495Q439 446 408 410T325 353Q403 348 451 301ZM226 615T213 611T194 592T187 542V352L234 351Q313 351 349 388T385 488Q385 544 354 579T254 615Q226 615
213 611ZM368 12T404 50T441 160Q441 236 395 283T269 332Q232 333 187 330V81Q187 54 195 40T227 19T294 12Q368 12 404 50Z" />
<glyph unicode="C" glyph-name="C" horiz-adv-x="687" d="M473 636T515 627T604 593Q610 589 611 587T614 571L626 457Q626 454 621 454T614 456Q592 539 541 580T407 622Q319 622 253 585T150 480T113 320Q113 235 153 162T262 45T409 1Q575 1 621 164Q621 166
626 166Q633 166 633 163L625 57Q624 45 622 42T614 35Q562 8 517 -2T408 -13Q304 -13 223 28T95 145T49 319Q49 413 95 485T222 596T407 636Q473 636 515 627Z" />
<glyph unicode="D" glyph-name="D" horiz-adv-x="688" d="M268 -4T232 -1Q218 0 198 1T152 2L86 1Q68 0 36 0Q34 0 34 6T36 12Q75 12 93 17T119 36T126 81V544Q126 574 120 588T95 607T37 613Q35 613 35 619T37 625L86 624Q128 622 152 622Q187 622 223 625Q267
627 283 627Q388 627 469 587T594 478T639 323Q639 226 593 152T468 37T297 -4Q268 -4 232 -1ZM371 9T436 43T537 143T574 301Q574 389 540 460T441 572T292 614Q248 614 225 609T190 589T179 542V92Q179 62 188 44T220 18T287 9Q371 9 436 43Z" />
<glyph unicode="E" glyph-name="E" horiz-adv-x="533" d="M470 149T476 149T482 145Q473 82 473 15Q473 7 470 4T457 0H44Q42 0 42 6T44 12Q83 12 101 17T126 36T133 81V544Q133 574 127 588T102 607T44 613Q42 613 42 619T44 625H440Q449 625 449 616L451 495Q451
492 446 492T440 495Q440 546 413 576T342 606H273Q235 606 217 601T193 582T186 538V335H318Q364 335 382 350T400 404Q400 406 406 406T412 404L411 325Q411 296 412 282L413 235Q413 233 407 233T401 235Q401 280 382 298T315 316H186V85Q186 56 192 43T216
24T273 19H365Q405 19 433 54T470 146Q470 149 476 149Z" />
<glyph unicode="F" glyph-name="F" horiz-adv-x="506" d="M451 495Q451 492 446 492T440 495Q440 546 413 576T342 606H273Q236 606 218 601T193 583T186 543V323H295Q346 323 367 338T388 392Q388 394 394 394T400 392L399 313Q399 284 400 270L401 223Q401 221
395 221T389 223Q389 268 368 286T291 304H186V85Q186 53 195 39T229 18T311 12Q314 12 314 6T311 0Q270 0 247 1L160 2L94 1Q76 0 44 0Q42 0 42 6T44 12Q83 12 101 17T126 36T133 81V544Q133 574 127 588T102 607T44 613Q42 613 42 619T44 625H440Q449 625 449
616L451 495Z" />
<glyph unicode="G" glyph-name="G" horiz-adv-x="709" d="M296 -12T216 32T92 152T49 318Q49 415 97 487T230 597T420 636Q475 636 521 625T599 594Q606 589 607 587T609 572L621 460Q621 457 616 456T609 458Q587 541 540 581T406 621Q323 621 257 586T153 485T115
331Q115 248 149 173T255 50T432 2Q506 2 536 30T567 125Q567 177 560 197T530 225T450 232Q444 232 444 240Q444 243 445 245T449 248Q526 243 573 243Q618 243 669 246Q671 246 672 244T674 239Q674 232 669 232Q643 233 632 226T618 195T615 115Q615 70 618
51T622 27Q622 21 620 19T611 15Q490 -12 405 -12Q296 -12 216 32Z" />
<glyph unicode="H" glyph-name="H" horiz-adv-x="758" d="M723 12T723 6T720 0Q689 0 672 1L605 2L536 1Q519 0 489 0Q486 0 486 6T489 12Q529 12 547 17T571 36T578 81V316H179V81Q179 50 185 36T210 17T268 12Q270 12 270 6T268 0Q238 0 220 1L152 2L86 1Q68
0 36 0Q34 0 34 6T36 12Q75 12 93 17T119 36T126 81V544Q126 574 120 588T95 607T37 613Q35 613 35 619T37 625L86 624Q128 622 152 622Q179 622 221 624L268 625Q270 625 270 619T268 613Q229 613 211 607T186 587T179 542V335H578V542Q578 572 572 586T547 607T489
613Q486 613 486 619T489 625L536 624Q578 622 605 622Q630 622 672 624L720 625Q723 625 723 619T720 613Q681 613 663 608T637 588T630 544V81Q630 51 637 37T662 17T720 12Q723 12 723 6Z" />
<glyph unicode="I" glyph-name="I" horiz-adv-x="330" d="M192 50T198 36T223 17T281 12Q283 12 283 6T281 0Q251 0 234 1L164 2L97 1Q79 0 48 0Q45 0 45 6T48 12Q87 12 105 17T131 36T138 81V544Q138 574 131 588T106 607T48 613Q45 613 45 619T48 625L97 624Q139
622 164 622Q192 622 234 624L281 625Q283 625 283 619T281 613Q242 613 224 607T199 587T192 542V81Q192 50 198 36Z" />
<glyph unicode="J" glyph-name="J" horiz-adv-x="318" d="M277 625T277 619T275 613Q241 613 225 607T204 587T198 542V-34Q198 -130 155 -187T27 -244Q-6 -244 -24 -234T-43 -206Q-43 -193 -36 -185T-14 -177Q1 -177 9 -183T27 -201Q35 -213 43 -219T65 -225Q104
-225 124 -182T144 -43V544Q144 574 137 588T108 607T42 613Q40 613 40 619T42 625L99 624Q145 622 170 622Q195 622 233 624L275 625Q277 625 277 619Z" />
<glyph unicode="K" glyph-name="K" horiz-adv-x="649" d="M638 12T638 6T635 0H523Q488 0 481 4T445 50T373 145L214 342L179 308V81Q179 50 185 36T210 17T268 12Q270 12 270 6T268 0Q238 0 220 1L152 2L86 1Q68 0 36 0Q34 0 34 6T36 12Q75 12 93 17T119 36T126
81V544Q126 574 120 588T95 607T37 613Q35 613 35 619T37 625L86 624Q128 622 152 622Q179 622 221 624L268 625Q270 625 270 619T268 613Q229 613 211 607T186 587T179 542V331L399 550Q433 584 433 597Q433 606 420 609T375 613Q373 613 373 619T375 625L417
624Q455 622 488 622Q519 622 553 624L588 625Q591 625 591 619T588 613Q547 613 504 598T422 544L252 378L395 198Q471 103 511 64T572 19T635 12Q638 12 638 6Z" />
<glyph unicode="L" glyph-name="L" horiz-adv-x="530" d="M178 85Q178 56 184 43T208 24T264 19H392Q491 19 509 146Q509 149 514 149T520 145Q511 66 511 15Q511 7 508 4T496 0H36Q34 0 34 6T36 12Q75 12 93 17T118 36T125 81V544Q125 574 119 588T94 607T36
613Q34 613 34 619T36 625L85 624Q127 622 151 622Q178 622 220 624L267 625Q269 625 269 619T267 613Q228 613 210 608T185 588T178 543V85Z" />
<glyph unicode="M" glyph-name="M" horiz-adv-x="830" d="M810 12T810 6T807 0Q776 0 758 1L691 2L629 1Q614 0 587 0Q585 0 585 6T587 12Q622 12 638 17T660 37T664 81L647 546L413 7Q411 3 405 3Q400 3 396 7L152 542L151 544L143 104Q142 52 160 32T227 12Q229
12 229 6T227 0Q199 0 184 1L130 2L81 1Q68 0 42 0Q40 0 40 6T42 12Q84 12 101 32T120 104L130 578Q99 613 49 613Q47 613 47 619T49 625L83 624Q93 623 109 623Q125 623 136 624T153 625Q167 625 175 616T199 573L424 87L648 600Q653 611 661 618T678 625Q682
625 691 624T716 623L761 624Q771 625 792 625Q794 625 794 619T792 613Q740 613 719 600T698 546L717 81Q718 50 724 36T749 17T807 12Q810 12 810 6Z" />
<glyph unicode="N" glyph-name="N" horiz-adv-x="725" d="M702 625T702 619T699 613Q656 613 639 592T621 520V-11Q621 -13 616 -14T609 -13L157 543L140 562V104Q140 53 157 33T216 12Q219 12 219 6T216 0Q192 0 179 1L131 2L82 1Q69 0 43 0Q41 0 41 6T43 12Q86
12 102 32T118 104V583Q83 613 46 613Q43 613 43 619T46 625L82 624Q93 623 113 623Q130 623 141 624T158 625Q165 625 169 622T180 607Q191 589 204 573L599 82V520Q599 571 583 592T525 613Q523 613 523 619T525 625L563 624Q593 622 611 622Q628 622 660 624L699
625Q702 625 702 619Z" />
<glyph unicode="O" glyph-name="O" horiz-adv-x="766" d="M273 -12T201 31T89 149T49 312Q49 415 101 488T234 599T401 636Q496 636 568 592T678 474T717 319Q717 228 669 152T541 32T366 -12Q273 -12 201 31ZM473 8T530 41T620 138T653 291Q653 385 617 458T514
573T359 614Q243 614 178 542T113 346Q113 253 149 176T252 53T402 8Q473 8 530 41Z" />
<glyph unicode="P" glyph-name="P" horiz-adv-x="540" d="M186 53T195 39T229 18T311 12Q314 12 314 6T311 0Q270 0 247 1L160 2L94 1Q76 0 44 0Q42 0 42 6T44 12Q83 12 101 17T126 36T133 81V544Q133 574 127 588T102 607T44 613Q42 613 42 619T44 625L93 624Q135
622 159 622Q183 622 214 625Q292 628 299 628Q387 628 442 588T497 464Q497 397 464 352T381 284T276 262Q246 262 227 267Q224 267 224 272Q224 275 225 278T229 280Q245 276 265 276Q336 276 385 319T435 444Q435 497 414 535T357 594T276 615Q235 615 218 611T194
593T186 542V85Q186 53 195 39Z" />
<glyph unicode="Q" glyph-name="Q" horiz-adv-x="766" d="M746 -156Q748 -156 749 -160T749 -166Q696 -178 663 -178Q595 -178 520 -134T391 -11Q383 -12 366 -12Q273 -12 201 31T89 149T49 312Q49 415 101 488T234 599T401 636Q496 636 568 592T678 474T717 319Q717
244 684 178T592 66T460 0Q503 -70 574 -114T709 -159Q732 -159 745 -156H746ZM113 253T149 176T252 53T402 8Q473 8 530 41T620 138T653 291Q653 385 617 458T514 573T359 614Q243 614 178 542T113 346Q113 253 149 176Z" />
<glyph unicode="R" glyph-name="R" horiz-adv-x="667" d="M679 12T679 6T676 0H560Q535 0 464 83T293 313Q258 306 230 306Q226 306 187 309V81Q187 50 193 36T218 17T276 12Q279 12 279 6T276 0Q246 0 228 1L160 2L94 1Q76 0 44 0Q42 0 42 6T44 12Q84 12 102
17T128 36T135 81V544Q135 574 129 588T104 607T46 613Q43 613 43 619T46 625L94 624Q134 622 160 622Q182 622 201 623T235 625Q271 628 299 628Q374 628 415 592T457 495Q457 442 425 399T340 330Q426 208 484 140T587 42T676 12Q679 12 679 6ZM215 329T247 329Q330
329 365 363T401 468Q401 545 364 580T255 615Q217 615 202 601T187 542V332Q215 329 247 329Z" />
<glyph unicode="S" glyph-name="S" horiz-adv-x="485" d="M138 464T157 435T203 387T280 338Q332 307 360 287T409 234T430 157Q430 110 407 72T339 11T227 -12Q192 -12 161 -5T91 22Q86 25 85 29T82 41L67 171V172Q67 176 72 176T78 173Q88 104 131 53T249 2Q302
2 338 31T375 122Q375 167 355 199T307 253T229 304Q181 332 154 353T107 405T87 481Q87 531 112 566T179 618T267 636Q322 636 381 612Q396 606 396 595L405 489Q405 485 400 485T393 489Q389 541 354 582T254 623Q194 623 166 588T138 504Q138 464 157 435Z"
/>
<glyph unicode="T" glyph-name="T" horiz-adv-x="632" d="M117 608T88 578T49 471Q49 469 43 469T37 471Q41 498 46 557T51 647Q51 652 57 652T63 647Q63 625 116 625Q202 622 317 622Q376 622 442 624L510 625Q546 625 563 630T585 650Q586 654 591 654T596 650Q593
622 590 565T587 471Q587 469 581 469T575 471Q575 524 564 553T527 595T454 608Q402 608 381 605T353 588T345 542V81Q345 50 352 36T380 17T446 12Q448 12 448 6T446 0Q413 0 394 1L317 2L244 1Q224 0 189 0Q187 0 187 6T189 12Q234 12 255 17T283 36T291 81V544Q291
577 283 589T255 605T180 608Q117 608 88 578Z" />
<glyph unicode="U" glyph-name="U" horiz-adv-x="697" d="M572 568T552 590T487 613Q484 613 484 619T487 625L529 624Q563 622 584 622Q602 622 632 624L673 625Q675 625 675 619T673 613Q632 613 613 591T594 520V234Q594 117 531 52T361 -13Q287 -13 232 16T147
100T117 225V544Q117 574 111 588T86 607T28 613Q26 613 26 619T28 625L76 624Q118 622 143 622Q170 622 212 624L258 625Q261 625 261 619T258 613Q219 613 201 607T177 587T170 542V260Q170 143 225 80T379 16Q470 16 521 73T572 233V520Q572 568 552 590Z" />
<glyph unicode="V" glyph-name="V" horiz-adv-x="667" d="M673 625T673 619T670 613Q636 613 614 599T574 544L354 1Q353 -3 343 -3Q335 -3 332 1L85 542Q68 581 49 597T-2 613Q-5 613 -5 619T-2 625L41 624Q69 622 83 622Q112 622 152 624L195 625Q198 625 198
619T195 613Q164 613 149 606T133 582Q133 570 142 552L360 71L553 550Q560 567 560 579Q560 597 542 605T481 613Q478 613 478 619T481 625L521 624Q555 622 581 622Q602 622 628 624L670 625Q673 625 673 619Z" />
<glyph unicode="W" glyph-name="W" horiz-adv-x="936" d="M942 625T942 619T939 613Q905 613 883 599T843 544L623 1Q622 -3 612 -3Q604 -3 601 1L470 288L354 1Q353 -3 343 -3Q335 -3 332 1L85 542Q68 581 49 597T-2 613Q-5 613 -5 619T-2 625L41 624Q69 622
83 622Q112 622 152 624L195 625Q198 625 198 619T195 613Q164 613 148 606T132 581Q132 571 140 552L361 75L458 314L354 542Q337 581 318 597T267 613Q264 613 264 619T267 625L310 624Q338 622 352 622Q373 622 401 624L429 625Q432 625 432 619T429 613Q409
613 401 610T393 598Q393 589 409 552L489 380L558 550Q567 571 567 585Q567 600 556 606T519 613Q517 613 517 619T519 625L547 624Q567 622 585 622Q605 622 631 624L674 625Q676 625 676 619T674 613Q640 613 617 599T578 544L501 354L630 75L823 550Q830 565
830 579Q830 597 812 605T750 613Q747 613 747 619T750 625L790 624Q824 622 850 622Q871 622 897 624L939 625Q942 625 942 619Z" />
<glyph unicode="X" glyph-name="X" horiz-adv-x="653" d="M635 12T635 6T633 0Q607 0 592 1L539 2L464 1Q446 0 415 0Q413 0 413 6T415 12Q445 12 458 16T471 30Q471 38 462 51L307 286L168 92Q148 63 148 45Q148 12 209 12Q212 12 212 6T209 0Q179 0 164 1L97
2L56 1Q45 0 20 0Q17 0 17 6T20 12Q54 12 86 32T147 92L298 299L137 542Q111 581 85 597T23 613Q21 613 21 619T23 625Q35 625 61 623L97 622Q129 622 177 624L229 625Q232 625 232 619T229 613Q199 613 186 609T173 594Q173 587 182 573L334 345L461 524Q485 559
485 579Q485 613 427 613Q424 613 424 619T427 625L472 624Q510 622 539 622Q556 622 580 624L616 625Q619 625 619 619T616 613Q548 613 482 523L342 332L508 83Q534 43 561 28T633 12Q635 12 635 6Z" />
<glyph unicode="Y" glyph-name="Y" horiz-adv-x="607" d="M613 625T613 619T611 613Q574 613 539 590T476 523L335 309V81Q335 50 341 36T365 17T423 12Q426 12 426 6T423 0Q393 0 376 1L308 2L240 1Q222 0 192 0Q189 0 189 6T192 12Q231 12 249 17T275 36T282
81V294L111 542Q85 581 60 597T-2 613Q-5 613 -5 619T-2 625L35 624Q59 622 71 622Q104 622 152 624L204 625Q206 625 206 619T204 613Q174 613 161 609T147 594Q147 588 157 573L325 332L453 526Q475 562 475 581Q475 613 421 613Q419 613 419 619T421 625L466
624Q504 622 533 622Q550 622 574 624L611 625Q613 625 613 619Z" />
<glyph unicode="Z" glyph-name="Z" horiz-adv-x="593" d="M460 600Q463 605 463 606T455 608Q259 608 193 603T105 579T63 502Q63 500 59 500Q56 500 53 501T51 504L91 655Q91 656 95 656Q105 656 103 653Q102 650 102 645Q102 633 113 629T160 625H525Q530 625
532 620T532 612L131 27L128 21Q128 19 136 19H404Q474 19 507 44T550 130Q551 132 556 132T561 130L547 8Q547 5 545 2T538 -2Q389 0 60 0Q55 0 53 4T54 13L460 600Z" />
<glyph unicode="[" glyph-name="bracketleft" horiz-adv-x="274" d="M94 715Q94 722 95 723T103 725H236Q239 725 239 719T236 713Q195 713 176 707T149 687T142 642V-34Q142 -64 149 -78T175 -99T236 -105Q239 -105 239 -111T236 -117H103Q97 -117 96 -115T94 -106V715Z" />
<glyph unicode="\" glyph-name="backslash" horiz-adv-x="339" d="M26 718Q24 723 41 729T61 730L313 -152Q315 -156 297 -161T277 -163L26 718Z" />
<glyph unicode="]" glyph-name="bracketright" horiz-adv-x="274" d="M180 -113T179 -115T171 -117H38Q35 -117 35 -111T38 -105Q79 -105 98 -99T125 -79T132 -34V642Q132 672 125 686T99 707T38 713Q35 713 35 719T38 725H171Q177 725 178 724T180 715V-106Q180
-113 179 -115Z" />
<glyph unicode="^" glyph-name="asciicircum" horiz-adv-x="392" d="M333 379Q333 377 329 375T324 375L196 557L68 375Q67 374 65 374Q63 374 60 376T58 380L185 629Q186 634 196 634Q206 634 207 629L333 380V379Z" />
<glyph unicode="_" glyph-name="underscore" horiz-adv-x="398" d="M32 -75T31 -69T29 -55Q29 -48 30 -43T33 -37H364Q366 -37 367 -43T369 -56Q369 -63 368 -69T364 -75H34Q32 -75 31 -69Z" />
<glyph unicode="`" glyph-name="grave" horiz-adv-x="213" d="M45 732T57 731T84 725T98 716L154 476Q156 474 151 473T144 474L47 727Q45 732 57 731Z" />
<glyph unicode="a" glyph-name="a" horiz-adv-x="419" d="M414 54Q418 54 419 50T416 43L313 -6Q309 -8 305 -8Q294 -8 285 9T274 57L219 23Q194 7 175 0T136 -7Q101 -7 81 13T60 61Q60 89 82 111T158 154L273 197V267Q273 377 205 377Q171 377 152 356T126 305Q122
287 117 278T94 268Q80 268 72 276T64 296Q64 318 93 341T165 380T240 396Q280 396 299 370T319 297V108Q319 71 327 55T357 39Q376 39 412 54H414ZM273 71V74V183L167 143Q138 131 127 117T116 84Q116 60 131 43T173 26Q195 26 225 43L273 71Z" />
<glyph unicode="b" glyph-name="b" horiz-adv-x="508" d="M354 399T390 378T448 316T470 214Q470 142 439 91T356 13T249 -13Q173 -13 115 30L42 -4H40Q36 -4 35 -1T37 6Q71 30 84 48T97 103V599Q97 636 90 652T64 668Q47 668 16 654H14Q11 654 10 659T12 665L132
724L137 725Q139 725 141 723T144 718V307Q181 348 221 373T311 399Q354 399 390 378ZM344 6T379 51T414 182Q414 272 377 321T281 371Q244 371 211 350T144 291V123Q144 83 166 57T220 18T282 6Q344 6 379 51Z" />
<glyph unicode="c" glyph-name="c" horiz-adv-x="407" d="M166 -12T123 16T58 90T37 185Q37 249 68 296T149 369T251 395Q294 395 329 378T365 338Q365 326 357 318T336 309Q313 309 296 337Q283 356 266 365T219 375Q159 375 127 332T94 214Q94 130 137 75T265
19Q329 19 368 54H370Q373 54 375 51T375 46Q341 16 306 2T230 -12Q166 -12 123 16Z" />
<glyph unicode="d" glyph-name="d" horiz-adv-x="513" d="M507 55Q511 55 512 50T510 43L407 -6Q403 -8 399 -8Q385 -8 376 14T365 78Q327 37 286 12T193 -13Q151 -13 116 11T59 78T37 177Q37 247 72 297T160 373T265 399Q318 399 365 368V599Q365 636 358 652T331
668Q323 668 311 664T283 653H281Q277 653 276 657T278 664L400 724Q402 725 405 725Q407 725 409 723T412 718V108Q412 71 420 55T450 39Q481 39 505 54L507 55ZM266 20T299 39T365 94V306Q339 341 309 360T235 380Q170 380 131 334T92 206Q92 151 110 109T159
44T228 20Q266 20 299 39Z" />
<glyph unicode="e" glyph-name="e" horiz-adv-x="405" d="M352 54Q355 54 357 51T358 44Q292 -12 215 -12Q158 -12 118 15T58 85T37 180Q37 239 65 288T140 366T244 395Q300 395 328 365T357 281Q357 267 355 262T345 256L96 255Q94 231 94 216Q94 129 135 75T250
20Q281 20 303 28T351 54H352ZM167 375T138 347T98 267L299 271Q300 323 277 349T212 375Q167 375 138 347Z" />
<glyph unicode="f" glyph-name="f" horiz-adv-x="305" d="M369 726T402 711T435 675Q435 662 426 655T404 647Q394 647 386 651T368 669Q351 690 332 700T285 710Q224 710 188 643T152 439V374Q199 375 285 384Q288 384 290 378T292 361Q292 353 289 345T282 338Q227
351 152 353V81Q152 50 159 36T186 17T253 12Q255 12 255 6T253 0L189 1Q169 2 127 2L72 1Q58 0 33 0Q30 0 30 6T33 12Q64 12 78 17T98 37T104 81V306Q104 333 100 343T81 357T29 361Q26 361 26 367T29 373Q72 373 87 382T103 418Q108 580 161 653T319 726Q369
726 402 711Z" />
<glyph unicode="g" glyph-name="g" horiz-adv-x="444" d="M338 19T382 1T426 -81Q426 -134 391 -180T299 -253T179 -280Q111 -280 73 -250T34 -171Q34 -95 137 -22Q98 -17 78 -2T58 44Q58 74 74 96T130 151Q97 167 79 196T60 262Q60 317 102 355T216 393Q280 393
318 363Q347 378 372 386T425 394Q427 394 428 387T430 373Q430 361 428 351T421 342Q386 356 356 356Q342 356 328 353Q346 335 355 312T364 264Q364 230 346 200T293 152T211 133Q175 133 145 144Q122 124 112 108T102 74Q102 52 117 41T168 24T272 19Q338 19
382 1ZM156 379T135 356T113 284Q113 239 130 208T173 162T229 147Q266 147 288 171T310 244Q310 305 277 342T194 379Q156 379 135 356ZM290 -250T337 -213T384 -112Q384 -73 365 -55T313 -31T223 -26Q178 -26 159 -25Q122 -47 103 -74T83 -142Q83 -192 116 -221T216
-250Q290 -250 337 -213Z" />
<glyph unicode="h" glyph-name="h" horiz-adv-x="496" d="M476 12T476 6T474 0Q451 0 437 1L385 2L332 1Q319 0 296 0Q293 0 293 6T296 12Q325 12 338 17T356 36T361 81V244Q361 305 338 334T267 363Q235 363 201 345T139 294V81Q139 51 144 37T162 17T205 12Q207
12 207 6T205 0Q182 0 168 1L116 2L63 1Q50 0 27 0Q24 0 24 6T27 12Q56 12 69 17T87 36T92 81V600Q92 637 85 653T60 669Q43 669 12 654H10Q6 654 5 659T7 665L130 725H132Q139 725 139 718V309Q179 355 216 375T294 396Q349 396 378 366T408 275V81Q408 51 413
37T431 17T474 12Q476 12 476 6Z" />
<glyph unicode="i" glyph-name="i" horiz-adv-x="275" d="M119 516T109 526T98 554Q98 572 108 582T138 592Q156 592 166 582T176 554Q176 536 166 526T138 516Q119 516 109 526ZM55 0T55 6T57 12Q86 12 99 17T118 36T123 81V270Q123 307 116 323T90 339Q71 339
42 324H41Q37 324 35 329T37 336L161 394L165 395Q167 395 169 393T172 388Q172 382 171 349T170 271V81Q170 51 174 37T192 17T235 12Q238 12 238 6T235 0Q212 0 199 1L146 2L94 1Q80 0 57 0Q55 0 55 6Z" />
<glyph unicode="j" glyph-name="j" horiz-adv-x="255" d="M108 516T98 526T87 554Q87 572 97 582T127 592Q145 592 155 582T165 554Q165 536 155 526T127 516Q108 516 98 526ZM161 382T160 349T159 271V-48Q159 -116 147 -159T107 -232T28 -282Q26 -283 24 -278T23
-271Q72 -250 92 -204T112 -71V270Q112 307 105 323T80 339Q61 339 32 324H31Q26 324 25 329T27 336L151 394L154 395Q161 395 161 388Q161 382 160 349Z" />
<glyph unicode="k" glyph-name="k" horiz-adv-x="491" d="M482 12T482 6T480 0Q457 0 443 1L391 2L321 1Q305 0 278 0Q276 0 276 6T278 12Q306 12 318 16T331 31Q331 40 322 53L197 226L139 182V81Q139 51 144 37T162 17T205 12Q207 12 207 6T205 0Q182 0 168
1L116 2L63 1Q50 0 27 0Q24 0 24 6T27 12Q56 12 69 17T87 36T92 81V600Q92 637 85 653T60 669Q43 669 12 654H10Q6 654 5 659T7 665L127 724L132 725Q134 725 136 723T139 718V195L284 308Q318 333 318 351Q318 374 255 374Q252 374 252 380T255 386Q282 386 296
385L367 384L433 385Q445 386 468 386Q470 386 470 380T468 374Q393 374 302 305L238 256L363 81Q411 12 480 12Q482 12 482 6Z" />
<glyph unicode="l" glyph-name="l" horiz-adv-x="256" d="M38 0T38 6T41 12Q70 12 83 17T101 36T106 81V600Q106 637 99 653T74 669Q58 669 26 654H24Q20 654 19 659T21 665L144 724Q146 725 149 725Q151 725 153 723T156 718V81Q156 51 160 37T178 18T221 12Q224
12 224 6T221 0Q199 0 185 1L131 2L77 1Q64 0 41 0Q38 0 38 6Z" />
<glyph unicode="m" glyph-name="m" horiz-adv-x="760" d="M741 12T741 6T738 0Q715 0 702 1L649 2L597 1Q583 0 560 0Q558 0 558 6T560 12Q589 12 602 17T621 36T626 81V244Q626 305 605 334T537 363Q506 363 474 345T414 293Q415 288 415 275V81Q415 51 420 37T438
17T481 12Q483 12 483 6T481 0Q458 0 444 1L392 2L339 1Q326 0 303 0Q300 0 300 6T303 12Q332 12 345 17T363 36T368 81V244Q368 305 347 334T280 363Q249 363 217 345T158 294V81Q158 51 162 37T180 17T223 12Q226 12 226 6T223 0Q200 0 187 1L135 2L82 1Q69 0
46 0Q43 0 43 6T46 12Q75 12 88 17T106 36T111 81V281Q111 316 103 331T75 346Q59 346 19 331H17Q13 331 12 335T14 342L125 394Q127 395 130 395Q138 395 148 373T158 315V311Q195 356 231 376T306 396Q351 396 378 374T413 307Q451 354 488 375T564 396Q617 396
645 366T673 275V81Q673 51 677 37T695 17T738 12Q741 12 741 6Z" />
<glyph unicode="n" glyph-name="n" horiz-adv-x="515" d="M495 12T495 6T492 0Q469 0 456 1L404 2L351 1Q338 0 315 0Q312 0 312 6T315 12Q344 12 357 17T375 36T380 81V248Q380 309 357 337T285 365Q253 365 220 347T158 296V81Q158 51 162 37T180 17T223 12Q226
12 226 6T223 0Q200 0 187 1L135 2L82 1Q69 0 46 0Q43 0 43 6T46 12Q75 12 88 17T106 36T111 81V281Q111 316 103 331T75 346Q59 346 19 331H17Q13 331 12 335T14 342L125 394Q127 395 130 395Q138 395 148 373T158 315V311Q198 357 235 378T312 399Q368 399 397
369T427 278V81Q427 51 431 37T449 17T492 12Q495 12 495 6Z" />
<glyph unicode="o" glyph-name="o" horiz-adv-x="477" d="M173 -13T129 15T61 92T37 198Q37 263 68 308T148 376T248 399Q306 399 349 370T416 294T440 193Q440 131 412 84T335 12T230 -13Q173 -13 129 15ZM316 5T349 44T382 167Q382 227 361 275T302 352T215
380Q158 380 126 341T94 227Q94 167 115 117T173 36T258 5Q316 5 349 44Z" />
<glyph unicode="p" glyph-name="p" horiz-adv-x="510" d="M359 399T394 377T449 314T470 215Q470 141 436 90T352 13T256 -13Q223 -13 197 -6T145 19V-194Q145 -224 153 -238T182 -257T248 -263Q250 -263 250 -269T248 -275Q214 -275 195 -274L123 -273L69 -274Q56
-275 33 -275Q30 -275 30 -269T33 -263Q61 -263 74 -258T93 -238T98 -194V278Q98 315 90 331T61 347Q37 347 6 332H4Q0 332 -1 336T1 343L104 392L112 394Q127 394 136 372T145 307Q190 355 232 377T318 399Q359 399 394 377ZM324 7T353 28T398 90T415 184Q415
270 378 318T282 366Q244 366 212 347T145 291V74Q174 41 207 24T289 7Q324 7 353 28Z" />
<glyph unicode="q" glyph-name="q" horiz-adv-x="484" d="M470 -263T470 -269T468 -275Q444 -275 431 -274L378 -273L321 -274Q305 -275 276 -275Q274 -275 274 -269T276 -263Q311 -263 327 -258T350 -238T356 -194V76Q319 36 280 12T191 -13Q149 -13 114 9T58
72T37 171Q37 251 69 302T151 376T253 399Q316 399 382 365L446 388L448 389Q451 389 452 385T450 379Q426 364 414 345T402 295V-194Q402 -224 407 -238T426 -257T468 -263Q470 -263 470 -269ZM257 15T289 35T356 93V270Q356 320 319 350T220 380Q94 380 94 202Q94
115 129 65T221 15Q257 15 289 35Z" />
<glyph unicode="r" glyph-name="r" horiz-adv-x="360" d="M291 395T310 384T330 357Q330 347 323 339T301 331Q291 331 283 336T273 343Q254 358 235 358Q221 358 206 346T158 295V81Q158 51 165 37T192 17T258 12Q261 12 261 6T258 0Q226 0 207 1L135 2L82 1Q69
0 46 0Q43 0 43 6T46 12Q75 12 88 17T106 36T111 81V281Q111 316 103 331T75 346Q59 346 19 331H17Q13 331 12 335T14 342L125 394Q127 395 130 395Q138 395 148 373T158 315V309Q199 359 223 377T269 395Q291 395 310 384Z" />
<glyph unicode="s" glyph-name="s" horiz-adv-x="338" d="M96 285T119 265T189 221Q223 204 243 191T277 158T291 108Q291 58 254 24T151 -11Q98 -11 57 20Q51 24 51 32L49 104Q49 107 54 107T61 105Q80 55 109 32T180 8Q214 8 232 23T250 67Q250 96 238 115T207
147T156 174Q123 190 104 202T71 236T57 288Q57 341 97 370T191 399Q228 399 262 384Q268 381 269 379T271 373Q271 354 270 343L269 304Q269 302 263 302T257 304Q257 336 224 357T154 379Q127 379 112 365T96 322Q96 285 119 265Z" />
<glyph unicode="t" glyph-name="t" horiz-adv-x="339" d="M308 47Q311 47 313 43T312 36Q275 10 247 -1T189 -12Q148 -12 122 6T96 68V306Q96 333 93 343T79 357T44 361Q41 361 41 367T44 373Q82 373 105 394T129 447Q129 450 137 450Q144 450 144 447V374Q212
375 285 384Q288 384 290 378T292 361Q292 353 289 345T282 338Q222 353 144 353V102Q144 19 225 19Q271 19 306 46L308 47Z" />
<glyph unicode="u" glyph-name="u" horiz-adv-x="490" d="M484 55Q488 55 489 51T487 44L375 -8L371 -9Q362 -9 353 13T343 71V80Q302 34 262 14T180 -7Q131 -7 104 24T76 115V270Q76 311 70 328T47 346Q32 346 11 336H9Q5 336 4 341T6 347L111 394L115 395Q117
395 120 393T123 388V145Q123 85 144 56T207 27Q242 27 278 45T343 97V270Q343 311 337 328T313 346Q298 346 277 336H275Q271 336 270 341T273 347L378 394L381 395Q384 395 386 393T389 388V105Q389 71 397 56T426 40Q436 40 450 44T482 55H484Z" />
<glyph unicode="v" glyph-name="v" horiz-adv-x="433" d="M427 386T427 380T425 374Q400 374 384 360T352 305L227 1Q226 -3 216 -3Q206 -3 205 1L68 303Q48 347 36 360T4 374Q1 374 1 380T4 386Q24 386 35 385L65 384L128 385Q142 386 166 386Q169 386 169 380T166
374Q105 374 105 350Q105 343 109 335L233 64L335 311Q341 328 341 338Q341 357 322 365T258 374Q256 374 256 380T258 386Q285 386 299 385L359 384L394 385Q404 386 425 386Q427 386 427 380Z" />
<glyph unicode="w" glyph-name="w" horiz-adv-x="667" d="M661 386T661 380T658 374Q634 374 618 359T586 305L461 1Q460 -3 450 -3Q440 -3 439 1L328 245L227 1Q226 -3 216 -3Q206 -3 205 1L68 303Q48 347 36 360T4 374Q1 374 1 380T4 386Q24 386 35 385L65 384L123
385Q138 386 166 386Q169 386 169 380T166 374Q137 374 122 369T106 350Q106 343 110 335L234 64L318 268L302 303Q282 347 269 360T237 374Q235 374 235 380T237 386L269 385Q279 384 299 384L362 385Q376 386 400 386Q403 386 403 380T400 374Q339 374 339 350Q339
343 343 335L467 63L568 311Q575 330 575 339Q575 358 556 366T492 374Q490 374 490 380T492 386Q519 386 533 385L593 384L628 385Q637 386 658 386Q661 386 661 380Z" />
<glyph unicode="x" glyph-name="x" horiz-adv-x="439" d="M427 12T427 6T425 0L393 1Q383 2 363 2L300 1Q286 0 262 0Q259 0 259 6T262 12Q281 12 289 14T298 24Q298 30 285 51L206 170L140 75Q132 63 127 53T121 34Q121 12 181 12Q184 12 184 6T181 0Q154 0 141
1L81 2L46 1Q36 0 15 0Q13 0 13 6T15 12Q40 12 69 29T123 81L197 184L118 303Q93 341 66 357T16 374Q14 374 14 380T16 386Q37 386 47 385L78 384L141 385Q155 386 179 386Q181 386 181 380T179 374Q160 374 152 372T143 362Q143 356 156 335L228 226L285 311Q306
340 306 353Q306 364 292 369T244 374Q242 374 242 380T244 386Q271 386 285 385L345 384L380 385Q390 386 411 386Q413 386 413 380T411 374Q385 374 357 358T303 305L236 214L323 83Q348 45 375 29T425 12Q427 12 427 6Z" />
<glyph unicode="y" glyph-name="y" horiz-adv-x="437" d="M432 386T432 380T429 374Q405 374 388 359T357 305L232 -28Q195 -125 163 -179T95 -257T14 -281Q-6 -281 -20 -272T-34 -244Q-34 -233 -26 -226T-7 -219Q14 -219 34 -231Q43 -237 50 -239T69 -242Q94
-242 116 -220T163 -147T224 -3L74 303Q51 347 39 360T8 374Q6 374 6 380T8 386Q29 386 39 385L70 384L132 385Q146 386 171 386Q173 386 173 380T171 374Q111 374 111 350Q111 343 115 335L251 57L336 301Q344 323 344 337Q344 358 326 366T263 374Q261 374 261
380T263 386Q290 386 304 385L364 384L399 385Q408 386 429 386Q432 386 432 380Z" />
<glyph unicode="z" glyph-name="z" horiz-adv-x="405" d="M288 367Q292 374 283 374Q198 374 156 369T90 345T56 289Q56 287 52 287Q49 287 46 288T44 291L76 413Q77 415 83 415T88 412Q84 397 94 392T135 386H342Q346 386 349 382T350 374L112 21Q108 14 117
14Q226 14 265 18T322 41T356 109Q357 111 362 111T367 109L365 11Q365 7 363 4T356 0H51Q47 0 45 4T44 12L288 367Z" />
<glyph unicode="{" glyph-name="braceleft" horiz-adv-x="289" d="M29 298T29 304T32 311Q83 317 100 376T117 529Q117 615 128 655T166 710T250 725Q254 725 254 719T250 713Q212 713 191 686T168 607Q166 484 160 435T134 357T61 305Q112 281 133 252T160 173T168
1Q170 -50 191 -77T250 -105Q254 -105 254 -111T250 -117Q192 -117 165 -103T127 -47T117 80Q117 175 100 233T32 298Q29 298 29 304Z" />
<glyph unicode="|" glyph-name="bar" horiz-adv-x="168" d="M67 731Q67 738 86 738Q104 738 104 731V-154Q104 -158 99 -160T86 -162Q78 -162 73 -160T67 -154V731Z" />
<glyph unicode="}" glyph-name="braceright" horiz-adv-x="283" d="M200 292T183 234T166 80Q166 -6 156 -47T119 -102T33 -117Q29 -117 29 -111T33 -105Q71 -105 92 -78T115 1Q117 123 123 172T150 251T222 305Q170 328 150 356T123 434T115 607Q113 658 92 685T33
713Q29 713 29 719T33 725Q90 725 117 711T155 656T166 529Q166 435 183 376T251 311Q254 311 254 305T251 298Q200 292 183 234Z" />
<glyph unicode="~" glyph-name="asciitilde" horiz-adv-x="443" d="M342 194T357 204T389 233H390Q393 233 395 231T396 226Q362 185 340 171T292 157Q273 157 256 161T213 175Q187 184 169 188T130 193Q106 193 94 186T70 169T55 154H54Q52 154 50 156T48 161Q104
230 159 230Q173 230 191 225T227 214Q253 204 273 199T313 194Q342 194 357 204Z" />
<glyph unicode="&#xa0;" glyph-name="uni00A0" horiz-adv-x="234" />
<glyph unicode="&#xa1;" glyph-name="exclamdown" horiz-adv-x="243" d="M143 365T154 355T165 326Q165 309 154 299T125 289Q106 289 96 299T86 326Q86 344 96 354T125 365Q143 365 154 355ZM161 -270T149 -272T121 -275Q106 -275 94 -273T82 -267Q97 -180 104
-81T118 165Q118 167 123 167T128 165Q133 21 139 -79T161 -267Q161 -270 149 -272Z" />
<glyph unicode="&#xa2;" glyph-name="cent" horiz-adv-x="540" d="M484 143T489 143Q491 143 493 142T496 139L482 33Q481 25 479 22T468 15Q391 -12 308 -12H297V-102Q297 -109 287 -109Q277 -109 277 -102V-11Q194 -4 140 34T62 127T37 236Q37 299 68 351T154
437T277 478V561Q277 565 280 567T287 569Q291 569 294 567T297 561V480H312Q350 480 393 473T464 451Q471 448 473 445T476 434L487 331Q487 328 482 327T475 330Q462 398 416 431T297 467V1Q304 0 317 0Q380 0 424 34T484 140Q484 143 489 143ZM97 195T117 142T179
52T277 3V467Q226 464 185 435T121 358T97 251Q97 195 117 142Z" />
<glyph unicode="&#xa3;" glyph-name="sterling" horiz-adv-x="432" d="M368 125T374 125T380 122Q371 72 371 15Q371 7 368 4T356 0H36Q34 0 34 5T36 12Q81 24 99 40Q113 52 118 67T124 106Q124 139 119 165T105 220H55Q52 220 50 223T48 230Q48 234 50 237T55
240H98Q90 267 86 288T81 333Q81 406 128 443T246 480Q293 480 336 463Q351 459 352 444L359 344Q359 340 354 340Q348 340 347 344Q344 391 315 429T235 467Q182 467 157 437T132 364Q132 338 137 315T148 270T156 240H274Q281 240 281 230Q281 220 274 220H162Q172
182 172 147Q172 108 158 84T119 40H251Q295 40 316 46T349 69T368 123Q368 125 374 125Z" />
<glyph unicode="&#xa4;" glyph-name="currency" horiz-adv-x="414" d="M335 37L287 91Q246 65 196 65Q152 65 121 87L77 37L56 58L100 104Q81 123 71 149T61 202Q61 257 101 294L51 344L77 367L127 313Q167 335 211 335Q254 335 291 311L340 364L360 344L311 294Q349
256 349 201Q349 150 312 111L361 62L335 37ZM252 81T274 107T297 180Q297 236 268 277T188 319Q152 319 131 295T110 223Q110 168 137 125T215 81Q252 81 274 107Z" />
<glyph unicode="&#xa5;" glyph-name="yen" horiz-adv-x="477" d="M468 468T468 462T465 456Q432 456 401 433T343 366L260 230V213H366Q373 213 373 203Q373 193 366 193H101Q94 193 94 203Q94 213 101 213H209V214L97 385Q70 425 49 440T-5 456Q-7 456 -7 462T-5
468L26 467Q48 465 57 465Q86 465 130 467L175 468Q178 468 178 462T175 456Q133 456 133 436Q133 427 140 416L253 245L324 367Q342 397 342 419Q342 436 331 446T302 456Q299 456 299 462T302 468L341 467Q373 465 400 465Q415 465 435 467L465 468Q468 468 468
462ZM373 156T373 146Q373 136 366 136H260V81Q260 50 266 36T290 17T349 12Q351 12 351 6T349 0Q319 0 302 1L234 2L169 1Q151 0 119 0Q117 0 117 6T119 12Q158 12 176 17T202 36T209 81V136H101Q94 136 94 146Q94 156 101 156H366Q373 156 373 146Z" />
<glyph unicode="&#xa6;" glyph-name="brokenbar" horiz-adv-x="168" d="M67 731Q67 738 86 738Q104 738 104 731V360Q104 357 99 355T86 353Q78 353 73 355T67 360V731ZM67 216Q67 220 72 222T86 224Q93 224 98 222T104 216V-154Q104 -158 99 -160T86 -162Q78
-162 73 -160T67 -154V216Z" />
<glyph unicode="&#xa7;" glyph-name="section" horiz-adv-x="429" d="M351 -8T351 -56Q351 -121 308 -154T204 -188Q152 -188 116 -170Q105 -163 104 -153L97 -60Q97 -57 103 -57T109 -60Q112 -83 131 -107T179 -148T241 -165Q272 -165 292 -147T312 -90Q312 -60
298 -37T263 3T203 45Q160 73 134 94T89 148T70 225Q70 264 83 292T135 357Q99 393 99 440Q99 504 142 538T244 572Q297 572 332 553Q343 548 343 537L351 443Q351 441 345 441T339 443Q336 467 317 491T269 532T207 549Q177 549 158 531T138 474Q138 444 152 421T186
381T245 339Q287 311 312 290T356 236T374 159Q374 121 361 93T311 29Q351 -8 351 -56ZM111 213T129 182T172 129T241 80Q288 49 302 37Q333 70 333 127Q333 170 316 202T273 255T206 304Q200 308 180 322T144 349Q125 329 118 307T111 256Q111 213 129 182Z" />
<glyph unicode="&#xa8;" glyph-name="dieresis" horiz-adv-x="322" d="M55 481T45 491T34 519Q34 537 44 547T74 557Q92 557 102 547T112 519Q112 501 102 491T74 481Q55 481 45 491ZM231 481T220 491T209 519Q209 537 220 547T249 557Q268 557 278 547T288 519Q288
501 278 491T249 481Q231 481 220 491Z" />
<glyph unicode="&#xa9;" glyph-name="copyright" horiz-adv-x="717" d="M299 -101T232 -68T121 31T76 191Q76 279 120 349T237 458T394 497Q468 497 524 467T610 384T641 270Q641 208 609 155T522 71T400 39Q340 39 300 61T241 119T222 195Q222 246 247 284T311
343T393 364Q427 364 455 351T485 317Q485 307 478 299T460 291Q443 291 426 315Q414 332 402 340T367 349Q278 349 278 219Q278 151 313 108T428 65Q476 65 517 84T583 142T609 242Q609 305 577 358T488 443T364 474Q285 474 229 440T144 346T115 213Q115 121
159 57T267 -39T391 -71Q452 -71 495 -63T592 -26Q594 -25 596 -28T596 -33Q543 -73 489 -87T366 -101Q299 -101 232 -68Z" />
<glyph unicode="&#xaa;" glyph-name="ordfeminine" horiz-adv-x="276" d="M270 407Q274 407 275 404T275 398L207 366Q197 362 189 373T180 409L136 385Q114 373 104 369T81 365Q61 365 49 376T37 404Q37 420 49 429T97 451L180 481V538Q180 584 167 598T130 612Q109
612 96 598T78 561Q76 551 73 546T58 540Q49 540 43 546T37 558Q37 572 58 589T107 618T157 630Q181 630 196 612T211 558V441Q211 418 216 408T234 398Q242 398 269 407H270ZM180 420V471L103 441Q87 435 82 430T76 416Q76 405 84 397T105 389Q117 389 131 395L180
420ZM260 313T261 309T263 301Q263 288 258 288H34Q32 288 31 292T29 301Q29 305 30 309T33 313H258Q260 313 261 309Z" />
<glyph unicode="&#xab;" glyph-name="guillemotleft" horiz-adv-x="451" d="M61 189Q57 193 57 201Q57 208 61 212L235 361Q235 362 237 362Q239 362 241 360T242 356L112 201L242 46Q243 44 240 41T235 40L61 189ZM208 189Q204 193 204 201Q204 208 208 212L382
361Q384 364 387 361T389 356L260 201L389 46V45Q389 42 387 40T382 40L208 189Z" />
<glyph unicode="&#xac;" glyph-name="logicalnot" horiz-adv-x="395" d="M364 77Q364 75 358 74T344 72Q337 72 332 73T326 76V229H34Q32 229 31 235T29 249Q29 256 30 261T33 267H364V77Z" />
<glyph unicode="&#xad;" glyph-name="uni00AD" horiz-adv-x="323" d="M30 167T29 174T27 190Q27 207 30 207L291 254Q293 255 294 249T296 235Q296 228 295 222T291 215L32 168Q30 167 29 174Z" />
<glyph unicode="&#xae;" glyph-name="registered" horiz-adv-x="752" d="M478 725T542 688T641 588T676 451Q676 365 634 293T522 180T368 138Q296 138 229 172T119 273T76 430Q76 513 120 580T238 686T394 725Q478 725 542 688ZM468 167T524 198T612 287T644
423Q644 500 608 564T507 665T364 702Q286 702 230 668T144 577T115 453Q115 363 157 298T263 200T393 167Q468 167 524 198ZM567 280T567 276T565 271H491Q481 271 456 312T388 435Q361 429 329 430V327Q329 307 332 298T347 286T382 283Q384 283 384 277T382
271Q364 271 353 272L310 273L268 272Q257 271 239 271Q237 271 237 277T239 283Q264 283 275 286T290 298T294 327V543Q294 562 290 571T275 583T239 587Q237 587 237 593T239 599L310 598Q322 598 354 600L392 601Q481 601 481 536Q481 476 426 447Q465 372 483
342T520 296T565 280Q567 280 567 276ZM359 445T369 445Q443 445 443 512Q443 588 375 588Q355 588 346 586T333 573T329 540V449Q359 445 369 445Z" />
<glyph unicode="&#xaf;" glyph-name="overscore" horiz-adv-x="345" d="M45 485T44 489T42 498Q42 511 47 511H298Q303 511 303 498Q303 485 298 485H47Q45 485 44 489Z" />
<glyph unicode="&#xb0;" glyph-name="degree" horiz-adv-x="332" d="M106 373T68 410T29 503Q29 556 67 593T167 630Q228 630 265 593T303 501Q303 446 266 410T167 373Q106 373 68 410ZM221 384T235 411T250 494Q250 620 161 620Q115 620 99 591T83 506Q83 449
103 417T174 384Q221 384 235 411Z" />
<glyph unicode="&#xb1;" glyph-name="plusminus" horiz-adv-x="398" d="M32 234T31 240T29 254Q29 260 30 265T33 271H180V418Q180 422 199 422Q218 422 218 418V271H364Q366 271 367 266T369 253Q369 246 368 240T364 234H218V88Q218 86 212 85T198 83Q191 83
186 84T180 87V234H34Q32 234 31 240ZM366 35T367 30T369 18Q369 12 368 7T364 1H34Q32 1 31 6T29 19Q29 25 30 30T33 35H364Q366 35 367 30Z" />
<glyph unicode="&#xb2;" glyph-name="uni00B2" horiz-adv-x="250" d="M39 423T53 445T83 490Q120 544 140 581T160 650Q160 677 146 693T108 709Q83 709 65 693T41 650Q41 648 37 648Q34 648 31 649T29 653Q51 729 123 729Q160 729 180 709T201 658Q201 629 180
596T119 515Q96 487 83 469T64 437Q64 434 67 434Q136 434 160 436T192 449T211 491Q211 493 213 493T216 491L215 407Q215 405 214 404T211 402H37Q35 402 34 404T34 408Q39 423 53 445Z" />
<glyph unicode="&#xb3;" glyph-name="uni00B3" horiz-adv-x="251" d="M172 564T193 546T214 494Q214 453 188 425T115 396Q77 396 54 415T23 465Q22 469 28 470T35 468Q41 447 59 430T110 413Q173 413 173 481Q173 519 152 542T98 565Q96 565 96 571T98 577Q127
577 143 600T160 650Q160 675 145 692T106 709Q83 709 65 692T41 650Q41 648 37 648Q34 648 31 649T29 653Q38 687 61 708T122 729Q158 729 179 709T201 657Q201 629 183 606T135 572Q172 564 193 546Z" />
<glyph unicode="&#xb4;" glyph-name="acute" horiz-adv-x="212" d="M69 472T65 472Q62 472 60 473T58 476L115 716Q116 720 129 724T155 730T166 727L69 474Q69 472 65 472Z" />
<glyph unicode="&#xb6;" glyph-name="paragraph" horiz-adv-x="634" d="M305 -193T291 -182T276 -154Q276 -140 283 -132T303 -123Q316 -123 322 -128T336 -145Q343 -157 351 -163T378 -170Q408 -170 420 -129T433 8V125Q393 122 345 122Q271 122 205 148T97 233T54
386Q54 504 124 566T318 628Q349 628 382 625Q394 625 419 624T467 622Q487 622 525 624L577 625Q579 625 579 619T577 613Q534 613 511 592T488 532L489 55Q489 -75 451 -134T327 -193Q305 -193 291 -182Z" />
<glyph unicode="&#xb7;" glyph-name="middot" horiz-adv-x="195" d="M80 161T69 171T58 200Q58 217 69 227T98 237Q117 237 127 227T137 200Q137 182 127 172T98 161Q80 161 69 171Z" />
<glyph unicode="&#xb8;" glyph-name="cedilla" horiz-adv-x="232" d="M106 -23T102 -39T97 -63Q97 -74 103 -80T122 -93T142 -104Q167 -118 181 -136T196 -181Q196 -217 171 -246T97 -275Q71 -275 53 -266T35 -239Q35 -227 43 -220T63 -212Q73 -212 78 -217T89
-232Q97 -244 104 -250T126 -256Q163 -256 163 -215Q163 -189 145 -169T77 -122Q69 -118 65 -115T61 -108Q61 -103 67 -91Q78 -63 91 -29L101 -1L113 -2Q106 -23 102 -39Z" />
<glyph unicode="&#xb9;" glyph-name="uni00B9" horiz-adv-x="262" d="M47 402T47 408T49 414Q83 414 96 418T114 435T118 483V601V642Q118 665 115 674T102 684Q94 684 79 678T42 662H41Q37 662 35 666T36 673L146 727Q147 728 149 728Q152 728 154 726T156 720V483Q156
449 159 436T176 418T221 414Q224 414 224 408T221 402L186 403Q156 405 138 405Q119 405 87 403L49 402Q47 402 47 408Z" />
<glyph unicode="&#xba;" glyph-name="ordmasculine" horiz-adv-x="313" d="M95 359T60 399T25 498Q25 541 46 570T99 615T164 630Q202 630 230 611T274 561T290 495Q290 458 271 427T221 377T152 359Q95 359 60 399ZM206 374T229 401T253 477Q253 535 223 574T145
614Q105 614 84 589T62 517Q62 459 92 417T167 374Q206 374 229 401ZM34 288T33 292T31 301Q31 305 32 309T35 313H278Q280 313 281 309T283 301Q283 288 278 288H36Q34 288 33 292Z" />
<glyph unicode="&#xbb;" glyph-name="guillemotright" horiz-adv-x="451" d="M243 212Q248 207 248 201Q248 194 243 189L69 40Q69 39 67 39Q65 39 63 41T62 46L192 200L62 356Q61 358 64 361T69 361L243 212ZM391 212Q395 208 395 201Q395 193 391 189L216 40Q216
39 214 39Q212 39 210 41T209 46L339 200L209 356Q208 358 211 361T216 361L391 212Z" />
<glyph unicode="&#xbc;" glyph-name="onequarter" horiz-adv-x="598" d="M224 320T224 315T221 309Q199 309 186 310L138 311L87 310Q73 309 49 309Q47 309 47 314T49 320Q83 320 96 324T114 341T118 389V508V549Q118 572 115 581T103 590Q91 590 42 568H41Q37
568 35 573T36 579L146 634H148Q151 634 153 632T156 627V389Q156 355 159 342T176 324T221 320Q224 320 224 315ZM440 627T443 627Q447 627 455 624T462 618L182 0Q182 -1 180 -1Q175 -1 167 3T160 9L440 626Q440 627 443 627ZM570 9T570 5T569 -1L510 0L434 -1Q433
-1 433 5T434 11Q460 11 470 13T485 21T489 41V92Q421 94 364 94Q362 94 361 96T361 99L515 324Q517 326 520 325T523 322V112L569 115Q571 115 571 102Q571 88 569 88Q539 90 523 90V41Q523 27 525 22T537 14T569 11Q570 9 570 5ZM441 109T489 111V265L399 112Q398
109 401 109Q441 109 489 111Z" />
<glyph unicode="&#xbd;" glyph-name="onehalf" horiz-adv-x="609" d="M47 309T47 314T49 320Q83 320 96 324T114 341T118 389V508V549Q118 572 115 581T103 590Q91 590 42 568H41Q37 568 35 573T36 579L146 634H148Q151 634 153 632T156 627V389Q156 355 159 342T176
324T221 320Q224 320 224 315T221 309Q199 309 186 310L138 311L87 310Q73 309 49 309Q47 309 47 314ZM182 -1T180 -1Q175 -1 167 3T160 9L440 626Q440 627 443 627Q447 627 455 624T462 618L182 0Q182 -1 180 -1ZM398 21T409 38T442 87Q479 141 499 178T519 248Q519
275 505 290T467 306Q442 306 424 290T400 248Q400 245 396 245Q393 245 390 246T388 250Q410 326 482 326Q520 326 540 307T560 256Q560 227 539 194T478 113Q455 85 442 67T423 35Q423 32 426 32Q495 32 519 34T551 47T570 89Q570 91 572 91T575 89L574 5Q574
0 570 0H396Q392 0 393 6Q398 21 409 38Z" />
<glyph unicode="&#xbe;" glyph-name="threequarters" horiz-adv-x="587" d="M214 360T188 332T115 303Q77 303 54 322T23 372Q22 376 28 377T35 374Q41 353 59 336T110 319Q138 319 155 335T173 387Q173 425 152 448T98 471Q96 471 96 477T98 483Q127 483 143
507T160 557Q160 581 145 598T106 615Q83 615 65 599T41 557Q41 554 36 554Q33 554 31 555T29 559Q38 593 61 614T122 635Q158 635 179 615T201 564Q201 536 183 513T136 479Q173 471 193 453T214 400Q214 360 188 332ZM429 627T432 627Q436 627 444 624T451 618L171
0Q171 -1 169 -1Q164 -1 156 3T149 9L429 626Q429 627 432 627ZM559 9T559 5T558 -1L499 0L423 -1Q422 -1 422 5T423 11Q449 11 459 13T474 21T478 41V92Q410 94 353 94Q351 94 350 96T350 99L504 324Q506 326 509 325T512 322V112L558 115Q560 115 560 102Q560
88 558 88Q528 90 512 90V41Q512 27 514 22T526 14T558 11Q559 9 559 5ZM430 109T478 111V265L388 112Q387 109 390 109Q430 109 478 111Z" />
<glyph unicode="&#xbf;" glyph-name="questiondown" horiz-adv-x="327" d="M199 361T210 351T221 322Q221 305 210 295T181 285Q162 285 152 295T142 322Q142 340 152 350T181 361Q199 361 210 351ZM196 -263T205 -250T217 -215Q221 -197 228 -187T251 -177Q265
-177 273 -186T281 -208Q281 -235 247 -255T166 -275Q109 -275 72 -244T35 -155Q35 -113 52 -86T106 -22Q142 14 156 41T170 102Q170 126 164 157Q163 160 168 161T175 159Q186 133 193 98T201 40Q201 9 188 -11T149 -57Q121 -84 107 -107T92 -167Q92 -210 114
-236T170 -263Q196 -263 205 -250Z" />
<glyph unicode="&#xc0;" glyph-name="Agrave" horiz-adv-x="698" d="M207 757T219 764T248 778T269 782Q309 759 353 734T441 689Q443 688 443 685Q443 682 441 680T437 679Q324 729 214 756Q207 757 219 764ZM698 12T698 6T694 0Q676 0 636 2Q598 4 580 4Q559
4 525 2Q493 0 477 0Q473 0 473 6T477 12Q518 12 536 19T554 45Q554 59 543 84L449 287H211L143 123Q129 89 129 67Q129 38 153 25T228 12Q233 12 233 6T228 0Q210 0 176 2Q138 4 110 4Q85 4 51 2Q21 0 2 0Q-3 0 -3 6T2 12Q30 12 49 22T86 58T124 132L333 635Q335
638 339 638T345 635L577 137Q600 86 618 60T653 23T694 12Q698 12 698 6ZM219 305H440L323 556L219 305Z" />
<glyph unicode="&#xc1;" glyph-name="Aacute" horiz-adv-x="698" d="M240 678Q236 678 235 682T236 689Q276 707 350 749L408 781Q412 783 428 778T457 765T463 756Q345 726 241 678H240ZM698 12T698 6T694 0Q676 0 636 2Q598 4 580 4Q559 4 525 2Q493 0 477 0Q473
0 473 6T477 12Q518 12 536 19T554 45Q554 59 543 84L449 287H211L143 123Q129 89 129 67Q129 38 153 25T228 12Q233 12 233 6T228 0Q210 0 176 2Q138 4 110 4Q85 4 51 2Q21 0 2 0Q-3 0 -3 6T2 12Q30 12 49 22T86 58T124 132L333 635Q335 638 339 638T345 635L577
137Q600 86 618 60T653 23T694 12Q698 12 698 6ZM219 305H440L323 556L219 305Z" />
<glyph unicode="&#xc2;" glyph-name="Acircumflex" horiz-adv-x="698" d="M227 647T224 650T223 655L326 747Q331 752 338 752Q344 752 349 747L451 655Q452 655 452 653Q452 651 450 649T446 648L338 710L229 648Q227 647 224 650ZM698 12T698 6T694 0Q676 0
636 2Q598 4 580 4Q559 4 525 2Q493 0 477 0Q473 0 473 6T477 12Q518 12 536 19T554 45Q554 59 543 84L449 287H211L143 123Q129 89 129 67Q129 38 153 25T228 12Q233 12 233 6T228 0Q210 0 176 2Q138 4 110 4Q85 4 51 2Q21 0 2 0Q-3 0 -3 6T2 12Q30 12 49 22T86
58T124 132L333 635Q335 638 339 638T345 635L577 137Q600 86 618 60T653 23T694 12Q698 12 698 6ZM219 305H440L323 556L219 305Z" />
<glyph unicode="&#xc3;" glyph-name="Atilde" horiz-adv-x="698" d="M210 721Q207 721 205 723T205 728Q221 750 243 767T289 785Q303 785 320 781T341 775Q385 761 415 761Q432 761 442 768T464 788H465Q468 788 470 786T471 781Q445 747 428 735T393 723Q378
723 362 726T330 735Q314 740 296 744T261 748Q245 748 237 743T222 731T212 721H210ZM698 12T698 6T694 0Q676 0 636 2Q598 4 580 4Q559 4 525 2Q493 0 477 0Q473 0 473 6T477 12Q518 12 536 19T554 45Q554 59 543 84L449 287H211L143 123Q129 89 129 67Q129 38
153 25T228 12Q233 12 233 6T228 0Q210 0 176 2Q138 4 110 4Q85 4 51 2Q21 0 2 0Q-3 0 -3 6T2 12Q30 12 49 22T86 58T124 132L333 635Q335 638 339 638T345 635L577 137Q600 86 618 60T653 23T694 12Q698 12 698 6ZM219 305H440L323 556L219 305Z" />
<glyph unicode="&#xc4;" glyph-name="Adieresis" horiz-adv-x="698" d="M232 720T222 730T211 758Q211 776 221 786T251 796Q269 796 279 786T289 758Q289 740 279 730T251 720Q232 720 222 730ZM408 720T397 730T386 758Q386 776 397 786T426 796Q445 796 455
786T465 758Q465 740 455 730T426 720Q408 720 397 730ZM698 12T698 6T694 0Q676 0 636 2Q598 4 580 4Q559 4 525 2Q493 0 477 0Q473 0 473 6T477 12Q518 12 536 19T554 45Q554 59 543 84L449 287H211L143 123Q129 89 129 67Q129 38 153 25T228 12Q233 12 233 6T228
0Q210 0 176 2Q138 4 110 4Q85 4 51 2Q21 0 2 0Q-3 0 -3 6T2 12Q30 12 49 22T86 58T124 132L333 635Q335 638 339 638T345 635L577 137Q600 86 618 60T653 23T694 12Q698 12 698 6ZM219 305H440L323 556L219 305Z" />
<glyph unicode="&#xc5;" glyph-name="Aring" horiz-adv-x="698" d="M297 665T274 689T251 745Q251 781 279 801T344 822Q378 822 402 799T427 743Q427 708 399 687T334 665Q297 665 274 689ZM305 813T297 802T289 765Q289 731 305 703T349 675Q369 675 378 687T388
725Q388 761 370 787T324 813Q305 813 297 802ZM698 12T698 6T694 0Q676 0 636 2Q598 4 580 4Q559 4 525 2Q493 0 477 0Q473 0 473 6T477 12Q518 12 536 19T554 45Q554 59 543 84L449 287H211L143 123Q129 89 129 67Q129 38 153 25T228 12Q233 12 233 6T228 0Q210
0 176 2Q138 4 110 4Q85 4 51 2Q21 0 2 0Q-3 0 -3 6T2 12Q30 12 49 22T86 58T124 132L333 635Q335 638 339 638T345 635L577 137Q600 86 618 60T653 23T694 12Q698 12 698 6ZM219 305H440L323 556L219 305Z" />
<glyph unicode="&#xc6;" glyph-name="AE" horiz-adv-x="871" d="M808 149T814 149T820 145Q811 82 811 15Q811 7 808 4T795 0H394Q392 0 392 6T394 12Q433 12 451 17T476 36T483 81V316H305L171 123Q140 78 140 53Q140 12 219 12Q224 12 224 6T219 0Q201 0 167
2Q129 4 101 4Q78 4 48 2Q20 0 5 0Q1 0 1 6T5 12Q34 12 73 44T151 132L458 574Q471 592 471 599Q471 608 455 610T394 613Q392 613 392 619T394 625H778Q787 625 787 616L789 495Q789 492 784 492T778 495Q778 544 751 575T680 606H622Q584 606 567 601T543 584T536
543V335H656Q702 335 720 350T738 404Q738 406 744 406T750 404L749 325Q749 296 750 282L751 235Q751 233 745 233T739 235Q739 280 720 298T653 316H536V85Q536 56 542 43T566 24T622 19H703Q743 19 771 54T808 146Q808 149 814 149ZM318 335H483V572L318 335Z"
/>
<glyph unicode="&#xc7;" glyph-name="Ccedilla" horiz-adv-x="687" d="M621 166T626 166Q633 166 633 163L625 57Q624 45 622 42T614 35Q562 8 517 -2T408 -13H407Q395 -49 395 -62Q395 -73 402 -79T421 -93T440 -104Q465 -118 479 -136T494 -181Q494 -217 469
-246T395 -275Q369 -275 351 -266T333 -239Q333 -227 341 -220T361 -212Q371 -212 376 -217T387 -232Q395 -244 402 -250T424 -256Q461 -256 461 -215Q461 -189 443 -169T375 -122Q367 -118 363 -115T359 -108Q359 -103 365 -91Q376 -64 395 -13Q294 -10 216 32T93
148T49 319Q49 413 95 485T222 596T407 636Q473 636 515 627T604 593Q610 589 611 587T614 571L626 457Q626 454 621 454T614 456Q592 539 541 580T407 622Q319 622 253 585T150 480T113 320Q113 235 153 162T262 45T409 1Q575 1 621 164Q621 166 626 166Z" />
<glyph unicode="&#xc8;" glyph-name="Egrave" horiz-adv-x="533" d="M159 757T171 764T200 778T221 782Q261 759 305 734T393 689Q395 688 395 685Q395 682 393 680T389 679Q276 729 166 756Q159 757 171 764ZM470 149T476 149T482 145Q473 82 473 15Q473 7 470
4T457 0H44Q42 0 42 6T44 12Q83 12 101 17T126 36T133 81V544Q133 574 127 588T102 607T44 613Q42 613 42 619T44 625H440Q449 625 449 616L451 495Q451 492 446 492T440 495Q440 546 413 576T342 606H273Q235 606 217 601T193 582T186 538V335H318Q364 335 382
350T400 404Q400 406 406 406T412 404L411 325Q411 296 412 282L413 235Q413 233 407 233T401 235Q401 280 382 298T315 316H186V85Q186 56 192 43T216 24T273 19H365Q405 19 433 54T470 146Q470 149 476 149Z" />
<glyph unicode="&#xc9;" glyph-name="Eacute" horiz-adv-x="533" d="M191 678Q187 678 186 682T188 689Q234 710 310 754L360 782Q364 784 380 778T409 765T415 756Q353 741 302 723T193 679L191 678ZM470 149T476 149T482 145Q473 82 473 15Q473 7 470 4T457
0H44Q42 0 42 6T44 12Q83 12 101 17T126 36T133 81V544Q133 574 127 588T102 607T44 613Q42 613 42 619T44 625H440Q449 625 449 616L451 495Q451 492 446 492T440 495Q440 546 413 576T342 606H273Q235 606 217 601T193 582T186 538V335H318Q364 335 382 350T400
404Q400 406 406 406T412 404L411 325Q411 296 412 282L413 235Q413 233 407 233T401 235Q401 280 382 298T315 316H186V85Q186 56 192 43T216 24T273 19H365Q405 19 433 54T470 146Q470 149 476 149Z" />
<glyph unicode="&#xca;" glyph-name="Ecircumflex" horiz-adv-x="533" d="M180 682T177 685T176 690L279 783Q284 788 291 788Q297 788 302 783L404 690Q405 690 405 688Q405 686 403 684T399 683L291 745L182 683Q180 682 177 685ZM470 149T476 149T482 145Q473
82 473 15Q473 7 470 4T457 0H44Q42 0 42 6T44 12Q83 12 101 17T126 36T133 81V544Q133 574 127 588T102 607T44 613Q42 613 42 619T44 625H440Q449 625 449 616L451 495Q451 492 446 492T440 495Q440 546 413 576T342 606H273Q235 606 217 601T193 582T186 538V335H318Q364
335 382 350T400 404Q400 406 406 406T412 404L411 325Q411 296 412 282L413 235Q413 233 407 233T401 235Q401 280 382 298T315 316H186V85Q186 56 192 43T216 24T273 19H365Q405 19 433 54T470 146Q470 149 476 149Z" />
<glyph unicode="&#xcb;" glyph-name="Edieresis" horiz-adv-x="533" d="M184 720T174 730T163 758Q163 776 173 786T203 796Q221 796 231 786T241 758Q241 740 231 730T203 720Q184 720 174 730ZM360 720T349 730T338 758Q338 776 349 786T378 796Q397 796 407
786T417 758Q417 740 407 730T378 720Q360 720 349 730ZM470 149T476 149T482 145Q473 82 473 15Q473 7 470 4T457 0H44Q42 0 42 6T44 12Q83 12 101 17T126 36T133 81V544Q133 574 127 588T102 607T44 613Q42 613 42 619T44 625H440Q449 625 449 616L451 495Q451
492 446 492T440 495Q440 546 413 576T342 606H273Q235 606 217 601T193 582T186 538V335H318Q364 335 382 350T400 404Q400 406 406 406T412 404L411 325Q411 296 412 282L413 235Q413 233 407 233T401 235Q401 280 382 298T315 316H186V85Q186 56 192 43T216
24T273 19H365Q405 19 433 54T470 146Q470 149 476 149Z" />
<glyph unicode="&#xcc;" glyph-name="Igrave" horiz-adv-x="330" d="M151 729T41 756Q34 757 46 764T75 778T96 782Q136 759 180 734T268 689Q270 688 270 685Q270 682 268 680T264 679Q151 729 41 756ZM192 50T198 36T223 17T281 12Q283 12 283 6T281 0Q251 0
234 1L164 2L97 1Q79 0 48 0Q45 0 45 6T48 12Q87 12 105 17T131 36T138 81V544Q138 574 131 588T106 607T48 613Q45 613 45 619T48 625L97 624Q139 622 164 622Q192 622 234 624L281 625Q283 625 283 619T281 613Q242 613 224 607T199 587T192 542V81Q192 50 198
36Z" />
<glyph unicode="&#xcd;" glyph-name="Iacute" horiz-adv-x="330" d="M66 678Q62 678 61 682T63 689Q109 710 185 754L235 782Q239 784 255 778T284 765T290 756Q228 741 177 723T68 679L66 678ZM192 50T198 36T223 17T281 12Q283 12 283 6T281 0Q251 0 234 1L164
2L97 1Q79 0 48 0Q45 0 45 6T48 12Q87 12 105 17T131 36T138 81V544Q138 574 131 588T106 607T48 613Q45 613 45 619T48 625L97 624Q139 622 164 622Q192 622 234 624L281 625Q283 625 283 619T281 613Q242 613 224 607T199 587T192 542V81Q192 50 198 36Z" />
<glyph unicode="&#xce;" glyph-name="Icircumflex" horiz-adv-x="330" d="M154 783Q159 788 166 788Q172 788 177 783L279 690Q280 690 280 688Q280 686 278 684T274 683L166 745L57 683Q55 682 52 685T51 690L154 783ZM192 50T198 36T223 17T281 12Q283 12 283
6T281 0Q251 0 234 1L164 2L97 1Q79 0 48 0Q45 0 45 6T48 12Q87 12 105 17T131 36T138 81V544Q138 574 131 588T106 607T48 613Q45 613 45 619T48 625L97 624Q139 622 164 622Q192 622 234 624L281 625Q283 625 283 619T281 613Q242 613 224 607T199 587T192 542V81Q192
50 198 36Z" />
<glyph unicode="&#xcf;" glyph-name="Idieresis" horiz-adv-x="330" d="M77 720T66 730T55 758Q55 776 66 786T95 796Q114 796 124 786T134 758Q134 740 124 730T95 720Q77 720 66 730ZM217 720T207 730T196 758Q196 776 206 786T236 796Q254 796 264 786T274
758Q274 740 264 730T236 720Q217 720 207 730ZM192 50T198 36T223 17T281 12Q283 12 283 6T281 0Q251 0 234 1L164 2L97 1Q79 0 48 0Q45 0 45 6T48 12Q87 12 105 17T131 36T138 81V544Q138 574 131 588T106 607T48 613Q45 613 45 619T48 625L97 624Q139 622 164
622Q192 622 234 624L281 625Q283 625 283 619T281 613Q242 613 224 607T199 587T192 542V81Q192 50 198 36Z" />
<glyph unicode="&#xd0;" glyph-name="Eth" horiz-adv-x="688" d="M388 627T469 587T594 478T639 323Q639 226 593 152T468 37T297 -4Q268 -4 232 -1Q218 0 198 1T152 2L86 1Q68 0 36 0Q34 0 34 6T36 12Q75 12 93 17T119 36T126 81V302H53Q49 302 49 311Q49 320
53 320H126V544Q126 574 120 588T95 607T37 613Q35 613 35 619T37 625L86 624Q128 622 152 622Q187 622 223 625Q267 627 283 627Q388 627 469 587ZM371 9T436 43T537 143T574 301Q574 389 540 460T441 572T292 614Q248 614 225 609T190 589T179 542V320H315Q319
320 319 311Q319 302 315 302H179V92Q179 62 188 44T220 18T287 9Q371 9 436 43Z" />
<glyph unicode="&#xd1;" glyph-name="Ntilde" horiz-adv-x="725" d="M247 697Q244 697 242 699T241 704Q257 726 279 744T325 762Q342 762 377 751Q421 737 451 737Q468 737 478 744T500 764H502Q505 764 507 762T507 757Q481 723 464 712T429 700Q414 700 398
703T366 712Q324 724 297 724Q281 724 273 719T258 707T248 697H247ZM702 625T702 619T699 613Q656 613 639 592T621 520V-11Q621 -13 616 -14T609 -13L157 543L140 562V104Q140 53 157 33T216 12Q219 12 219 6T216 0Q192 0 179 1L131 2L82 1Q69 0 43 0Q41 0 41
6T43 12Q86 12 102 32T118 104V583Q83 613 46 613Q43 613 43 619T46 625L82 624Q93 623 113 623Q130 623 141 624T158 625Q165 625 169 622T180 607Q191 589 204 573L599 82V520Q599 571 583 592T525 613Q523 613 523 619T525 625L563 624Q593 622 611 622Q628
622 660 624L699 625Q702 625 702 619Z" />
<glyph unicode="&#xd2;" glyph-name="Ograve" horiz-adv-x="766" d="M370 729T260 756Q253 757 265 764T294 778T315 782Q355 759 399 734T487 689Q489 688 489 685Q489 682 487 680T483 679Q370 729 260 756ZM273 -12T201 31T89 149T49 312Q49 415 101 488T234
599T401 636Q496 636 568 592T678 474T717 319Q717 228 669 152T541 32T366 -12Q273 -12 201 31ZM473 8T530 41T620 138T653 291Q653 385 617 458T514 573T359 614Q243 614 178 542T113 346Q113 253 149 176T252 53T402 8Q473 8 530 41Z" />
<glyph unicode="&#xd3;" glyph-name="Oacute" horiz-adv-x="766" d="M285 678Q281 678 280 682T282 689Q328 710 404 754L454 782Q458 784 474 778T503 765T509 756Q447 741 396 723T287 679L285 678ZM273 -12T201 31T89 149T49 312Q49 415 101 488T234 599T401
636Q496 636 568 592T678 474T717 319Q717 228 669 152T541 32T366 -12Q273 -12 201 31ZM473 8T530 41T620 138T653 291Q653 385 617 458T514 573T359 614Q243 614 178 542T113 346Q113 253 149 176T252 53T402 8Q473 8 530 41Z" />
<glyph unicode="&#xd4;" glyph-name="Ocircumflex" horiz-adv-x="766" d="M373 783Q378 788 385 788Q391 788 396 783L498 690Q499 690 499 688Q499 686 497 684T493 683L385 745L276 683Q274 682 271 685T270 690L373 783ZM273 -12T201 31T89 149T49 312Q49 415
101 488T234 599T401 636Q496 636 568 592T678 474T717 319Q717 228 669 152T541 32T366 -12Q273 -12 201 31ZM473 8T530 41T620 138T653 291Q653 385 617 458T514 573T359 614Q243 614 178 542T113 346Q113 253 149 176T252 53T402 8Q473 8 530 41Z" />
<glyph unicode="&#xd5;" glyph-name="Otilde" horiz-adv-x="766" d="M478 737T488 744T510 764H512Q515 764 517 762T517 757Q491 723 474 712T439 700Q424 700 408 703T376 712Q334 724 307 724Q291 724 283 719T268 707T258 697H257Q254 697 252 699T251 704Q267
726 289 744T335 762Q352 762 387 751Q431 737 461 737Q478 737 488 744ZM273 -12T201 31T89 149T49 312Q49 415 101 488T234 599T401 636Q496 636 568 592T678 474T717 319Q717 228 669 152T541 32T366 -12Q273 -12 201 31ZM473 8T530 41T620 138T653 291Q653
385 617 458T514 573T359 614Q243 614 178 542T113 346Q113 253 149 176T252 53T402 8Q473 8 530 41Z" />
<glyph unicode="&#xd6;" glyph-name="Odieresis" horiz-adv-x="766" d="M278 720T268 730T257 758Q257 776 267 786T297 796Q315 796 325 786T335 758Q335 740 325 730T297 720Q278 720 268 730ZM454 720T443 730T432 758Q432 776 443 786T472 796Q491 796 501
786T511 758Q511 740 501 730T472 720Q454 720 443 730ZM273 -12T201 31T89 149T49 312Q49 415 101 488T234 599T401 636Q496 636 568 592T678 474T717 319Q717 228 669 152T541 32T366 -12Q273 -12 201 31ZM473 8T530 41T620 138T653 291Q653 385 617 458T514
573T359 614Q243 614 178 542T113 346Q113 253 149 176T252 53T402 8Q473 8 530 41Z" />
<glyph unicode="&#xd7;" glyph-name="multiply" horiz-adv-x="378" d="M319 87Q322 83 309 70T292 60L189 163L85 60Q83 56 70 69T58 85L163 190L60 294Q56 296 69 309T85 320L189 216L292 319Q296 322 309 309T319 292L216 190L319 87Z" />
<glyph unicode="&#xd8;" glyph-name="Oslash" horiz-adv-x="766" d="M668 503T692 443T717 319Q717 228 669 152T541 32T366 -12Q302 -12 248 9T151 68L77 -7Q77 -8 75 -8Q72 -8 67 -2T64 7L138 82Q95 126 72 185T49 312Q49 415 101 488T234 599T401 636Q463 636
516 617T610 561L677 629L679 630Q684 630 689 625T691 618L623 548Q668 503 692 443ZM113 283T130 226T179 124L573 523Q534 567 480 590T359 614Q243 614 178 542T113 346Q113 283 130 226ZM473 8T530 41T620 138T653 291Q653 356 635 411T584 509L191 109Q230
61 284 35T402 8Q473 8 530 41Z" />
<glyph unicode="&#xd9;" glyph-name="Ugrave" horiz-adv-x="697" d="M360 729T250 756Q243 757 255 764T284 778T305 782Q345 759 389 734T477 689Q479 688 479 685Q479 682 477 680T473 679Q360 729 250 756ZM572 568T552 590T487 613Q484 613 484 619T487 625L529
624Q563 622 584 622Q602 622 632 624L673 625Q675 625 675 619T673 613Q632 613 613 591T594 520V234Q594 117 531 52T361 -13Q287 -13 232 16T147 100T117 225V544Q117 574 111 588T86 607T28 613Q26 613 26 619T28 625L76 624Q118 622 143 622Q170 622 212 624L258
625Q261 625 261 619T258 613Q219 613 201 607T177 587T170 542V260Q170 143 225 80T379 16Q470 16 521 73T572 233V520Q572 568 552 590Z" />
<glyph unicode="&#xda;" glyph-name="Uacute" horiz-adv-x="697" d="M275 678Q271 678 270 682T272 689Q318 710 394 754L444 782Q448 784 464 778T493 765T499 756Q437 741 386 723T277 679L275 678ZM572 568T552 590T487 613Q484 613 484 619T487 625L529 624Q563
622 584 622Q602 622 632 624L673 625Q675 625 675 619T673 613Q632 613 613 591T594 520V234Q594 117 531 52T361 -13Q287 -13 232 16T147 100T117 225V544Q117 574 111 588T86 607T28 613Q26 613 26 619T28 625L76 624Q118 622 143 622Q170 622 212 624L258 625Q261
625 261 619T258 613Q219 613 201 607T177 587T170 542V260Q170 143 225 80T379 16Q470 16 521 73T572 233V520Q572 568 552 590Z" />
<glyph unicode="&#xdb;" glyph-name="Ucircumflex" horiz-adv-x="697" d="M363 783Q368 788 375 788Q381 788 386 783L488 690Q489 690 489 688Q489 686 487 684T483 683L375 745L266 683Q264 682 261 685T260 690L363 783ZM572 568T552 590T487 613Q484 613 484
619T487 625L529 624Q563 622 584 622Q602 622 632 624L673 625Q675 625 675 619T673 613Q632 613 613 591T594 520V234Q594 117 531 52T361 -13Q287 -13 232 16T147 100T117 225V544Q117 574 111 588T86 607T28 613Q26 613 26 619T28 625L76 624Q118 622 143 622Q170
622 212 624L258 625Q261 625 261 619T258 613Q219 613 201 607T177 587T170 542V260Q170 143 225 80T379 16Q470 16 521 73T572 233V520Q572 568 552 590Z" />
<glyph unicode="&#xdc;" glyph-name="Udieresis" horiz-adv-x="697" d="M268 720T258 730T247 758Q247 776 257 786T287 796Q305 796 315 786T325 758Q325 740 315 730T287 720Q268 720 258 730ZM444 720T433 730T422 758Q422 776 433 786T462 796Q481 796 491
786T501 758Q501 740 491 730T462 720Q444 720 433 730ZM572 568T552 590T487 613Q484 613 484 619T487 625L529 624Q563 622 584 622Q602 622 632 624L673 625Q675 625 675 619T673 613Q632 613 613 591T594 520V234Q594 117 531 52T361 -13Q287 -13 232 16T147
100T117 225V544Q117 574 111 588T86 607T28 613Q26 613 26 619T28 625L76 624Q118 622 143 622Q170 622 212 624L258 625Q261 625 261 619T258 613Q219 613 201 607T177 587T170 542V260Q170 143 225 80T379 16Q470 16 521 73T572 233V520Q572 568 552 590Z" />
<glyph unicode="&#xdd;" glyph-name="Yacute" horiz-adv-x="607" d="M217 678Q213 678 212 682T214 689Q260 710 336 754L386 782Q390 784 406 778T435 765T441 756Q379 741 328 723T219 679L217 678ZM613 625T613 619T611 613Q574 613 539 590T476 523L335 309V81Q335
50 341 36T365 17T423 12Q426 12 426 6T423 0Q393 0 376 1L308 2L240 1Q222 0 192 0Q189 0 189 6T192 12Q231 12 249 17T275 36T282 81V294L111 542Q85 581 60 597T-2 613Q-5 613 -5 619T-2 625L35 624Q59 622 71 622Q104 622 152 624L204 625Q206 625 206 619T204
613Q174 613 161 609T147 594Q147 588 157 573L325 332L453 526Q475 562 475 581Q475 613 421 613Q419 613 419 619T421 625L466 624Q504 622 533 622Q550 622 574 624L611 625Q613 625 613 619Z" />
<glyph unicode="&#xde;" glyph-name="Thorn" horiz-adv-x="535" d="M336 147T385 190T435 316Q435 396 386 441T256 487Q219 487 186 478V85Q186 53 195 39T229 18T311 12Q314 12 314 6T311 0Q270 0 247 1L160 2L94 1Q76 0 44 0Q42 0 42 6T44 12Q83 12 101 17T126
36T133 81V544Q133 574 127 588T102 607T44 613Q42 613 42 619T44 625L94 624Q134 622 160 622Q195 622 247 624L311 625Q314 625 314 619T311 613Q255 613 230 607T195 586T186 539V491Q229 499 281 499Q379 499 438 459T497 329Q497 264 464 220T380 155T276
133Q252 133 227 138Q224 138 224 143Q224 146 225 149T229 151Q253 147 265 147Q336 147 385 190Z" />
<glyph unicode="&#xdf;" glyph-name="germandbls" horiz-adv-x="491" d="M298 -11T276 5T253 50Q253 60 258 67T277 75Q287 75 293 69T304 56T311 47Q322 28 333 18T364 8Q391 8 409 27T428 77Q428 114 408 144T347 215Q305 257 283 291T260 366Q260 397 272 420T307
474Q332 507 345 533T358 595Q358 640 338 676T267 712Q207 712 173 642T139 446V81Q139 51 144 37T162 17T206 12Q208 12 208 6T206 0L116 1L20 0Q17 0 17 6T20 12Q51 12 65 17T85 36T91 81V313Q91 340 87 350T69 364T18 368Q14 368 14 374T18 380Q51 380 65 386T83
404T90 448Q101 594 148 660T288 726Q350 726 378 695T407 627Q407 595 393 570T350 510Q323 478 310 456T297 406Q297 374 317 345T379 273Q424 225 446 192T469 119Q469 87 453 57T406 8T335 -11Q298 -11 276 5Z" />
<glyph unicode="&#xe0;" glyph-name="agrave" horiz-adv-x="419" d="M120 727Q118 732 130 731T157 725T171 716L227 476Q229 474 224 473T217 474L120 727ZM414 54Q418 54 419 50T416 43L313 -6Q309 -8 305 -8Q294 -8 285 9T274 57L219 23Q194 7 175 0T136 -7Q101
-7 81 13T60 61Q60 89 82 111T158 154L273 197V267Q273 377 205 377Q171 377 152 356T126 305Q122 287 117 278T94 268Q80 268 72 276T64 296Q64 318 93 341T165 380T240 396Q280 396 299 370T319 297V108Q319 71 327 55T357 39Q376 39 412 54H414ZM273 71V74V183L167
143Q138 131 127 117T116 84Q116 60 131 43T173 26Q195 26 225 43L273 71Z" />
<glyph unicode="&#xe1;" glyph-name="aacute" horiz-adv-x="419" d="M209 472T205 472Q202 472 200 473T198 476L255 716Q256 720 269 724T295 730T306 727L209 474Q209 472 205 472ZM414 54Q418 54 419 50T416 43L313 -6Q309 -8 305 -8Q294 -8 285 9T274 57L219
23Q194 7 175 0T136 -7Q101 -7 81 13T60 61Q60 89 82 111T158 154L273 197V267Q273 377 205 377Q171 377 152 356T126 305Q122 287 117 278T94 268Q80 268 72 276T64 296Q64 318 93 341T165 380T240 396Q280 396 299 370T319 297V108Q319 71 327 55T357 39Q376
39 412 54H414ZM273 71V74V183L167 143Q138 131 127 117T116 84Q116 60 131 43T173 26Q195 26 225 43L273 71Z" />
<glyph unicode="&#xe2;" glyph-name="acircumflex" horiz-adv-x="419" d="M143 472T139 472Q136 472 134 473T132 476L200 725Q201 730 211 730Q222 730 223 725L290 476Q292 474 287 473T280 474L212 653L143 474Q143 472 139 472ZM414 54Q418 54 419 50T416
43L313 -6Q309 -8 305 -8Q294 -8 285 9T274 57L219 23Q194 7 175 0T136 -7Q101 -7 81 13T60 61Q60 89 82 111T158 154L273 197V267Q273 377 205 377Q171 377 152 356T126 305Q122 287 117 278T94 268Q80 268 72 276T64 296Q64 318 93 341T165 380T240 396Q280 396
299 370T319 297V108Q319 71 327 55T357 39Q376 39 412 54H414ZM273 71V74V183L167 143Q138 131 127 117T116 84Q116 60 131 43T173 26Q195 26 225 43L273 71Z" />
<glyph unicode="&#xe3;" glyph-name="atilde" horiz-adv-x="419" d="M83 482Q80 482 78 484T78 489Q94 511 116 528T162 546Q176 546 193 542T214 536Q258 522 288 522Q305 522 315 529T337 549H338Q341 549 343 547T344 542Q318 508 301 496T266 484Q251 484
235 487T203 496Q187 501 169 505T134 509Q118 509 110 504T95 492T85 482H83ZM414 54Q418 54 419 50T416 43L313 -6Q309 -8 305 -8Q294 -8 285 9T274 57L219 23Q194 7 175 0T136 -7Q101 -7 81 13T60 61Q60 89 82 111T158 154L273 197V267Q273 377 205 377Q171
377 152 356T126 305Q122 287 117 278T94 268Q80 268 72 276T64 296Q64 318 93 341T165 380T240 396Q280 396 299 370T319 297V108Q319 71 327 55T357 39Q376 39 412 54H414ZM273 71V74V183L167 143Q138 131 127 117T116 84Q116 60 131 43T173 26Q195 26 225 43L273
71Z" />
<glyph unicode="&#xe4;" glyph-name="adieresis" horiz-adv-x="419" d="M105 481T95 491T84 519Q84 537 94 547T124 557Q142 557 152 547T162 519Q162 501 152 491T124 481Q105 481 95 491ZM281 481T270 491T259 519Q259 537 270 547T299 557Q318 557 328 547T338
519Q338 501 328 491T299 481Q281 481 270 491ZM414 54Q418 54 419 50T416 43L313 -6Q309 -8 305 -8Q294 -8 285 9T274 57L219 23Q194 7 175 0T136 -7Q101 -7 81 13T60 61Q60 89 82 111T158 154L273 197V267Q273 377 205 377Q171 377 152 356T126 305Q122 287 117
278T94 268Q80 268 72 276T64 296Q64 318 93 341T165 380T240 396Q280 396 299 370T319 297V108Q319 71 327 55T357 39Q376 39 412 54H414ZM273 71V74V183L167 143Q138 131 127 117T116 84Q116 60 131 43T173 26Q195 26 225 43L273 71Z" />
<glyph unicode="&#xe5;" glyph-name="aring" horiz-adv-x="419" d="M165 468T142 491T119 547Q119 583 148 604T212 625Q246 625 270 602T295 545Q295 510 267 489T202 468Q165 468 142 491ZM173 615T165 604T157 567Q157 533 173 505T218 477Q238 477 247 489T256
527Q256 563 238 589T192 615Q173 615 165 604ZM414 54Q418 54 419 50T416 43L313 -6Q309 -8 305 -8Q294 -8 285 9T274 57L219 23Q194 7 175 0T136 -7Q101 -7 81 13T60 61Q60 89 82 111T158 154L273 197V267Q273 377 205 377Q171 377 152 356T126 305Q122 287 117
278T94 268Q80 268 72 276T64 296Q64 318 93 341T165 380T240 396Q280 396 299 370T319 297V108Q319 71 327 55T357 39Q376 39 412 54H414ZM273 71V74V183L167 143Q138 131 127 117T116 84Q116 60 131 43T173 26Q195 26 225 43L273 71Z" />
<glyph unicode="&#xe6;" glyph-name="ae" horiz-adv-x="593" d="M552 54Q555 54 557 51T558 44Q526 14 494 1T423 -12Q323 -12 287 71L216 23Q191 6 171 0T131 -7Q92 -7 72 12T51 61Q51 88 73 110T150 152L266 196Q263 267 258 304T240 360T199 379Q158 379 141
355T116 291Q113 258 85 258Q70 258 63 266T55 287Q55 309 81 334T146 377T221 395Q252 395 275 375T304 321Q332 356 371 375T455 395Q502 395 527 364T553 278Q553 266 551 261T542 256L317 255Q315 231 315 215Q317 166 325 125T363 51T451 18Q483 18 507 26T551
54H552ZM381 375T355 347T319 267L493 271Q494 322 475 348T421 375Q381 375 355 347ZM283 79Q270 115 267 170V184L159 143Q130 131 119 117T108 84Q108 59 123 42T170 25Q195 25 222 42L283 79Z" />
<glyph unicode="&#xe7;" glyph-name="ccedilla" horiz-adv-x="407" d="M370 54Q373 54 375 51T375 46Q341 16 306 2T230 -12H223Q210 -53 210 -63Q210 -74 216 -80T235 -93T255 -104Q280 -118 294 -136T309 -181Q309 -217 284 -246T210 -275Q184 -275 166 -266T148
-239Q148 -227 156 -220T176 -212Q186 -212 191 -217T202 -232Q210 -244 217 -250T239 -256Q276 -256 276 -215Q276 -189 258 -169T190 -122Q182 -118 178 -115T174 -108Q174 -103 180 -91Q195 -55 210 -11Q152 -7 113 22T56 94T37 185Q37 249 68 296T149 369T251
395Q294 395 329 378T365 338Q365 326 357 318T336 309Q313 309 296 337Q283 356 266 365T219 375Q159 375 127 332T94 214Q94 130 137 75T265 19Q329 19 368 54H370Z" />
<glyph unicode="&#xe8;" glyph-name="egrave" horiz-adv-x="405" d="M134 727Q132 732 144 731T171 725T185 716L241 476Q243 474 238 473T231 474L134 727ZM352 54Q355 54 357 51T358 44Q292 -12 215 -12Q158 -12 118 15T58 85T37 180Q37 239 65 288T140 366T244
395Q300 395 328 365T357 281Q357 267 355 262T345 256L96 255Q94 231 94 216Q94 129 135 75T250 20Q281 20 303 28T351 54H352ZM167 375T138 347T98 267L299 271Q300 323 277 349T212 375Q167 375 138 347Z" />
<glyph unicode="&#xe9;" glyph-name="eacute" horiz-adv-x="405" d="M223 472T219 472Q216 472 214 473T212 476L269 716Q270 720 283 724T309 730T320 727L223 474Q223 472 219 472ZM352 54Q355 54 357 51T358 44Q292 -12 215 -12Q158 -12 118 15T58 85T37 180Q37
239 65 288T140 366T244 395Q300 395 328 365T357 281Q357 267 355 262T345 256L96 255Q94 231 94 216Q94 129 135 75T250 20Q281 20 303 28T351 54H352ZM167 375T138 347T98 267L299 271Q300 323 277 349T212 375Q167 375 138 347Z" />
<glyph unicode="&#xea;" glyph-name="ecircumflex" horiz-adv-x="405" d="M157 472T153 472Q150 472 148 473T146 476L214 725Q215 730 225 730Q236 730 237 725L304 476Q306 474 301 473T294 474L226 653L157 474Q157 472 153 472ZM352 54Q355 54 357 51T358
44Q292 -12 215 -12Q158 -12 118 15T58 85T37 180Q37 239 65 288T140 366T244 395Q300 395 328 365T357 281Q357 267 355 262T345 256L96 255Q94 231 94 216Q94 129 135 75T250 20Q281 20 303 28T351 54H352ZM167 375T138 347T98 267L299 271Q300 323 277 349T212
375Q167 375 138 347Z" />
<glyph unicode="&#xeb;" glyph-name="edieresis" horiz-adv-x="405" d="M119 481T109 491T98 519Q98 537 108 547T138 557Q156 557 166 547T176 519Q176 501 166 491T138 481Q119 481 109 491ZM295 481T284 491T273 519Q273 537 284 547T313 557Q332 557 342 547T352
519Q352 501 342 491T313 481Q295 481 284 491ZM352 54Q355 54 357 51T358 44Q292 -12 215 -12Q158 -12 118 15T58 85T37 180Q37 239 65 288T140 366T244 395Q300 395 328 365T357 281Q357 267 355 262T345 256L96 255Q94 231 94 216Q94 129 135 75T250 20Q281
20 303 28T351 54H352ZM167 375T138 347T98 267L299 271Q300 323 277 349T212 375Q167 375 138 347Z" />
<glyph unicode="&#xec;" glyph-name="igrave" horiz-adv-x="275" d="M45 732T57 731T84 725T98 716L154 476Q156 474 151 473T144 474L47 727Q45 732 57 731ZM55 0T55 6T57 12Q86 12 99 17T118 36T123 81V270Q123 307 116 323T90 339Q71 339 42 324H41Q37 324
35 329T37 336L161 394L165 395Q167 395 169 393T172 388Q172 382 171 349T170 271V81Q170 51 174 37T192 17T235 12Q238 12 238 6T235 0Q212 0 199 1L146 2L94 1Q80 0 57 0Q55 0 55 6Z" />
<glyph unicode="&#xed;" glyph-name="iacute" horiz-adv-x="275" d="M136 472T132 472Q129 472 127 473T125 476L182 716Q183 720 196 724T222 730T233 727L136 474Q136 472 132 472ZM55 0T55 6T57 12Q86 12 99 17T118 36T123 81V270Q123 307 116 323T90 339Q71
339 42 324H41Q37 324 35 329T37 336L161 394L165 395Q167 395 169 393T172 388Q172 382 171 349T170 271V81Q170 51 174 37T192 17T235 12Q238 12 238 6T235 0Q212 0 199 1L146 2L94 1Q80 0 57 0Q55 0 55 6Z" />
<glyph unicode="&#xee;" glyph-name="icircumflex" horiz-adv-x="275" d="M219 474T214 473T207 474L139 653L70 474Q70 472 66 472Q63 472 61 473T59 476L127 725Q128 730 138 730Q149 730 150 725L217 476Q219 474 214 473ZM55 0T55 6T57 12Q86 12 99 17T118
36T123 81V270Q123 307 116 323T90 339Q71 339 42 324H41Q37 324 35 329T37 336L161 394L165 395Q167 395 169 393T172 388Q172 382 171 349T170 271V81Q170 51 174 37T192 17T235 12Q238 12 238 6T235 0Q212 0 199 1L146 2L94 1Q80 0 57 0Q55 0 55 6Z" />
<glyph unicode="&#xef;" glyph-name="idieresis" horiz-adv-x="275" d="M50 481T39 491T28 519Q28 537 39 547T68 557Q87 557 97 547T107 519Q107 501 97 491T68 481Q50 481 39 491ZM190 481T180 491T169 519Q169 537 179 547T209 557Q227 557 237 547T247 519Q247
501 237 491T209 481Q190 481 180 491ZM55 0T55 6T57 12Q86 12 99 17T118 36T123 81V270Q123 307 116 323T90 339Q71 339 42 324H41Q37 324 35 329T37 336L161 394L165 395Q167 395 169 393T172 388Q172 382 171 349T170 271V81Q170 51 174 37T192 17T235 12Q238
12 238 6T235 0Q212 0 199 1L146 2L94 1Q80 0 57 0Q55 0 55 6Z" />
<glyph unicode="&#xf0;" glyph-name="eth" horiz-adv-x="470" d="M364 493T398 404T433 227Q433 106 374 47T223 -13Q167 -13 125 14T60 87T37 186Q37 255 68 303T146 375T241 399Q301 399 350 362Q321 461 261 549L125 484H124Q120 484 118 492T119 502L250 564Q178
662 90 716Q88 718 88 719Q88 721 90 723T96 725Q206 674 288 582L393 632H394Q398 632 400 624T399 614L301 568Q364 493 398 404ZM311 5T343 47T375 191Q375 245 364 302Q345 339 309 360T228 381Q170 381 132 337T94 215Q94 158 113 110T169 34T251 5Q311 5
343 47Z" />
<glyph unicode="&#xf1;" glyph-name="ntilde" horiz-adv-x="515" d="M141 482Q138 482 136 484T136 489Q152 511 174 528T220 546Q234 546 251 542T272 536Q316 522 346 522Q363 522 373 529T395 549H396Q399 549 401 547T402 542Q376 508 359 496T324 484Q309
484 293 487T261 496Q245 501 227 505T192 509Q176 509 168 504T153 492T143 482H141ZM495 12T495 6T492 0Q469 0 456 1L404 2L351 1Q338 0 315 0Q312 0 312 6T315 12Q344 12 357 17T375 36T380 81V248Q380 309 357 337T285 365Q253 365 220 347T158 296V81Q158
51 162 37T180 17T223 12Q226 12 226 6T223 0Q200 0 187 1L135 2L82 1Q69 0 46 0Q43 0 43 6T46 12Q75 12 88 17T106 36T111 81V281Q111 316 103 331T75 346Q59 346 19 331H17Q13 331 12 335T14 342L125 394Q127 395 130 395Q138 395 148 373T158 315V311Q198 357
235 378T312 399Q368 399 397 369T427 278V81Q427 51 431 37T449 17T492 12Q495 12 495 6Z" />
<glyph unicode="&#xf2;" glyph-name="ograve" horiz-adv-x="477" d="M146 732T158 731T185 725T199 716L255 476Q257 474 252 473T245 474L148 727Q146 732 158 731ZM173 -13T129 15T61 92T37 198Q37 263 68 308T148 376T248 399Q306 399 349 370T416 294T440
193Q440 131 412 84T335 12T230 -13Q173 -13 129 15ZM316 5T349 44T382 167Q382 227 361 275T302 352T215 380Q158 380 126 341T94 227Q94 167 115 117T173 36T258 5Q316 5 349 44Z" />
<glyph unicode="&#xf3;" glyph-name="oacute" horiz-adv-x="477" d="M237 472T233 472Q230 472 228 473T226 476L283 716Q284 720 297 724T323 730T334 727L237 474Q237 472 233 472ZM173 -13T129 15T61 92T37 198Q37 263 68 308T148 376T248 399Q306 399 349
370T416 294T440 193Q440 131 412 84T335 12T230 -13Q173 -13 129 15ZM316 5T349 44T382 167Q382 227 361 275T302 352T215 380Q158 380 126 341T94 227Q94 167 115 117T173 36T258 5Q316 5 349 44Z" />
<glyph unicode="&#xf4;" glyph-name="ocircumflex" horiz-adv-x="477" d="M320 474T315 473T308 474L240 653L171 474Q171 472 167 472Q164 472 162 473T160 476L228 725Q229 730 239 730Q250 730 251 725L318 476Q320 474 315 473ZM173 -13T129 15T61 92T37 198Q37
263 68 308T148 376T248 399Q306 399 349 370T416 294T440 193Q440 131 412 84T335 12T230 -13Q173 -13 129 15ZM316 5T349 44T382 167Q382 227 361 275T302 352T215 380Q158 380 126 341T94 227Q94 167 115 117T173 36T258 5Q316 5 349 44Z" />
<glyph unicode="&#xf5;" glyph-name="otilde" horiz-adv-x="477" d="M333 522T343 529T365 549H366Q369 549 371 547T372 542Q346 508 329 496T294 484Q279 484 263 487T231 496Q215 501 197 505T162 509Q146 509 138 504T123 492T113 482H111Q108 482 106 484T106
489Q122 511 144 528T190 546Q204 546 221 542T242 536Q286 522 316 522Q333 522 343 529ZM173 -13T129 15T61 92T37 198Q37 263 68 308T148 376T248 399Q306 399 349 370T416 294T440 193Q440 131 412 84T335 12T230 -13Q173 -13 129 15ZM316 5T349 44T382 167Q382
227 361 275T302 352T215 380Q158 380 126 341T94 227Q94 167 115 117T173 36T258 5Q316 5 349 44Z" />
<glyph unicode="&#xf6;" glyph-name="odieresis" horiz-adv-x="477" d="M133 481T123 491T112 519Q112 537 122 547T152 557Q170 557 180 547T190 519Q190 501 180 491T152 481Q133 481 123 491ZM309 481T298 491T287 519Q287 537 298 547T327 557Q346 557 356
547T366 519Q366 501 356 491T327 481Q309 481 298 491ZM173 -13T129 15T61 92T37 198Q37 263 68 308T148 376T248 399Q306 399 349 370T416 294T440 193Q440 131 412 84T335 12T230 -13Q173 -13 129 15ZM316 5T349 44T382 167Q382 227 361 275T302 352T215 380Q158
380 126 341T94 227Q94 167 115 117T173 36T258 5Q316 5 349 44Z" />
<glyph unicode="&#xf7;" glyph-name="divide" horiz-adv-x="398" d="M179 320T169 330T158 359Q158 376 168 386T198 396Q216 396 226 386T236 359Q236 341 226 331T198 320Q179 320 169 330ZM32 171T31 177T29 191Q29 197 30 202T33 208H364Q366 208 367 203T369
190Q369 183 368 177T364 171H34Q32 171 31 177ZM179 -11T169 -1T158 28Q158 45 168 55T198 65Q216 65 226 55T236 28Q236 10 226 0T198 -11Q179 -11 169 -1Z" />
<glyph unicode="&#xf8;" glyph-name="oslash" horiz-adv-x="477" d="M413 308T426 271T440 193Q440 131 412 84T335 12T230 -13Q154 -13 100 39L49 -14Q49 -15 47 -15Q44 -15 39 -9T36 0L87 53Q63 82 50 119T37 198Q37 263 68 308T148 376T248 399Q323 399 375
350L422 398L424 399Q428 399 433 394T436 386L388 336Q413 308 426 271ZM94 151T126 93L340 313Q318 345 286 362T215 380Q158 380 126 341T94 227Q94 151 126 93ZM316 5T349 44T382 167Q382 244 350 297L136 76Q159 43 190 24T258 5Q316 5 349 44Z" />
<glyph unicode="&#xf9;" glyph-name="ugrave" horiz-adv-x="490" d="M142 727Q140 732 152 731T179 725T193 716L249 476Q251 474 246 473T239 474L142 727ZM484 55Q488 55 489 51T487 44L375 -8L371 -9Q362 -9 353 13T343 71V80Q302 34 262 14T180 -7Q131 -7
104 24T76 115V270Q76 311 70 328T47 346Q32 346 11 336H9Q5 336 4 341T6 347L111 394L115 395Q117 395 120 393T123 388V145Q123 85 144 56T207 27Q242 27 278 45T343 97V270Q343 311 337 328T313 346Q298 346 277 336H275Q271 336 270 341T273 347L378 394L381
395Q384 395 386 393T389 388V105Q389 71 397 56T426 40Q436 40 450 44T482 55H484Z" />
<glyph unicode="&#xfa;" glyph-name="uacute" horiz-adv-x="490" d="M231 472T227 472Q224 472 222 473T220 476L277 716Q278 720 291 724T317 730T328 727L231 474Q231 472 227 472ZM484 55Q488 55 489 51T487 44L375 -8L371 -9Q362 -9 353 13T343 71V80Q302
34 262 14T180 -7Q131 -7 104 24T76 115V270Q76 311 70 328T47 346Q32 346 11 336H9Q5 336 4 341T6 347L111 394L115 395Q117 395 120 393T123 388V145Q123 85 144 56T207 27Q242 27 278 45T343 97V270Q343 311 337 328T313 346Q298 346 277 336H275Q271 336 270
341T273 347L378 394L381 395Q384 395 386 393T389 388V105Q389 71 397 56T426 40Q436 40 450 44T482 55H484Z" />
<glyph unicode="&#xfb;" glyph-name="ucircumflex" horiz-adv-x="490" d="M165 472T161 472Q158 472 156 473T154 476L222 725Q223 730 233 730Q244 730 245 725L312 476Q314 474 309 473T302 474L234 653L165 474Q165 472 161 472ZM484 55Q488 55 489 51T487
44L375 -8L371 -9Q362 -9 353 13T343 71V80Q302 34 262 14T180 -7Q131 -7 104 24T76 115V270Q76 311 70 328T47 346Q32 346 11 336H9Q5 336 4 341T6 347L111 394L115 395Q117 395 120 393T123 388V145Q123 85 144 56T207 27Q242 27 278 45T343 97V270Q343 311 337
328T313 346Q298 346 277 336H275Q271 336 270 341T273 347L378 394L381 395Q384 395 386 393T389 388V105Q389 71 397 56T426 40Q436 40 450 44T482 55H484Z" />
<glyph unicode="&#xfc;" glyph-name="udieresis" horiz-adv-x="490" d="M127 481T117 491T106 519Q106 537 116 547T146 557Q164 557 174 547T184 519Q184 501 174 491T146 481Q127 481 117 491ZM303 481T292 491T281 519Q281 537 292 547T321 557Q340 557 350
547T360 519Q360 501 350 491T321 481Q303 481 292 491ZM484 55Q488 55 489 51T487 44L375 -8L371 -9Q362 -9 353 13T343 71V80Q302 34 262 14T180 -7Q131 -7 104 24T76 115V270Q76 311 70 328T47 346Q32 346 11 336H9Q5 336 4 341T6 347L111 394L115 395Q117 395
120 393T123 388V145Q123 85 144 56T207 27Q242 27 278 45T343 97V270Q343 311 337 328T313 346Q298 346 277 336H275Q271 336 270 341T273 347L378 394L381 395Q384 395 386 393T389 388V105Q389 71 397 56T426 40Q436 40 450 44T482 55H484Z" />
<glyph unicode="&#xfd;" glyph-name="yacute" horiz-adv-x="437" d="M223 472T219 472Q216 472 214 473T212 476L269 716Q270 720 283 724T309 730T320 727L223 474Q223 472 219 472ZM432 386T432 380T429 374Q405 374 388 359T357 305L232 -28Q195 -125 163 -179T95
-257T14 -281Q-6 -281 -20 -272T-34 -244Q-34 -233 -26 -226T-7 -219Q14 -219 34 -231Q43 -237 50 -239T69 -242Q94 -242 116 -220T163 -147T224 -3L74 303Q51 347 39 360T8 374Q6 374 6 380T8 386Q29 386 39 385L70 384L132 385Q146 386 171 386Q173 386 173 380T171
374Q111 374 111 350Q111 343 115 335L251 57L336 301Q344 323 344 337Q344 358 326 366T263 374Q261 374 261 380T263 386Q290 386 304 385L364 384L399 385Q408 386 429 386Q432 386 432 380Z" />
<glyph unicode="&#xfe;" glyph-name="thorn" horiz-adv-x="490" d="M342 399T376 377T432 313T453 215Q453 141 419 90T335 13T239 -13Q205 -13 179 -6T127 19V-194Q127 -224 135 -238T164 -257T230 -263Q233 -263 233 -269T230 -275Q196 -275 177 -274L105 -273L52
-274Q39 -275 15 -275Q13 -275 13 -269T15 -263Q43 -263 57 -258T76 -238T81 -194V600Q81 637 74 653T48 669Q32 669 0 654H-2Q-6 654 -7 659T-5 665L116 724L120 725Q122 725 124 723T127 718V306Q172 354 214 376T301 399Q342 399 376 377ZM326 7T362 55T398
184Q398 270 360 318T264 366Q226 366 194 347T127 290V75Q156 42 189 25T271 7Q326 7 362 55Z" />
<glyph unicode="&#xff;" glyph-name="ydieresis" horiz-adv-x="437" d="M119 481T109 491T98 519Q98 537 108 547T138 557Q156 557 166 547T176 519Q176 501 166 491T138 481Q119 481 109 491ZM295 481T284 491T273 519Q273 537 284 547T313 557Q332 557 342 547T352
519Q352 501 342 491T313 481Q295 481 284 491ZM432 386T432 380T429 374Q405 374 388 359T357 305L232 -28Q195 -125 163 -179T95 -257T14 -281Q-6 -281 -20 -272T-34 -244Q-34 -233 -26 -226T-7 -219Q14 -219 34 -231Q43 -237 50 -239T69 -242Q94 -242 116 -220T163
-147T224 -3L74 303Q51 347 39 360T8 374Q6 374 6 380T8 386Q29 386 39 385L70 384L132 385Q146 386 171 386Q173 386 173 380T171 374Q111 374 111 350Q111 343 115 335L251 57L336 301Q344 323 344 337Q344 358 326 366T263 374Q261 374 261 380T263 386Q290
386 304 385L364 384L399 385Q408 386 429 386Q432 386 432 380Z" />
<glyph unicode="&#x2013;" glyph-name="endash" horiz-adv-x="515" d="M32 171T31 177T29 191Q29 197 30 202T33 208H481Q483 208 484 203T486 190Q486 183 485 177T481 171H34Q32 171 31 177Z" />
<glyph unicode="&#x2014;" glyph-name="emdash" horiz-adv-x="830" d="M32 171T31 177T29 191Q29 197 30 202T33 208H796Q798 208 799 203T801 190Q801 183 800 177T796 171H34Q32 171 31 177Z" />
<glyph unicode="&#x2018;" glyph-name="quoteleft" horiz-adv-x="166" d="M109 482T118 473T128 447Q128 412 87 412Q58 412 42 433T25 495Q25 534 42 567T94 633Q95 634 97 634Q100 634 102 631T102 626Q53 576 53 508Q53 482 63 467Q71 482 92 482Q109 482 118 473Z" />
<glyph unicode="&#x2019;" glyph-name="quoteright" horiz-adv-x="154" d="M96 635T112 614T129 552Q129 513 112 480T60 414Q59 413 57 413Q54 413 52 416T52 421Q101 471 101 539Q101 565 91 580Q84 565 62 565Q45 565 36 574T26 600Q26 635 67 635Q96 635 112 614Z" />
<glyph unicode="&#x201a;" glyph-name="quotesinglbase" horiz-adv-x="154" d="M96 62T112 41T129 -21Q129 -60 112 -93T60 -159Q59 -160 57 -160Q54 -160 52 -157T52 -152Q101 -102 101 -34Q101 -8 91 7Q84 -8 62 -8Q45 -8 36 1T26 27Q26 62 67 62Q96 62 112 41Z" />
<glyph unicode="&#x201c;" glyph-name="quotedblleft" horiz-adv-x="295" d="M110 482T119 473T129 447Q129 412 88 412Q59 412 43 433T26 495Q26 534 43 567T95 633Q96 634 98 634Q101 634 103 631T103 626Q54 576 54 508Q54 482 64 467Q72 482 93 482Q110 482
119 473ZM250 482T259 473T269 447Q269 412 228 412Q199 412 183 433T166 495Q166 534 183 567T235 633Q236 634 238 634Q241 634 243 631T243 626Q194 576 194 508Q194 482 204 467Q212 482 233 482Q250 482 259 473Z" />
<glyph unicode="&#x201d;" glyph-name="quotedblright" horiz-adv-x="295" d="M96 635T112 614T129 552Q129 513 112 480T60 414Q59 413 57 413Q54 413 52 416T52 421Q101 471 101 539Q101 565 91 580Q84 565 62 565Q45 565 36 574T26 600Q26 635 67 635Q96 635
112 614ZM236 635T252 614T269 552Q269 513 252 480T200 414Q199 413 197 413Q194 413 192 416T192 421Q241 471 241 539Q241 565 231 580Q224 565 202 565Q185 565 176 574T166 600Q166 635 207 635Q236 635 252 614Z" />
<glyph unicode="&#x201e;" glyph-name="quotedblbase" horiz-adv-x="295" d="M96 62T112 41T129 -21Q129 -60 112 -93T60 -159Q59 -160 57 -160Q54 -160 52 -157T52 -152Q101 -102 101 -34Q101 -8 91 7Q84 -8 62 -8Q45 -8 36 1T26 27Q26 62 67 62Q96 62 112 41ZM236
62T252 41T269 -21Q269 -60 252 -93T200 -159Q199 -160 197 -160Q194 -160 192 -157T192 -152Q241 -102 241 -34Q241 -8 231 7Q224 -8 202 -8Q185 -8 176 1T166 27Q166 62 207 62Q236 62 252 41Z" />
<glyph unicode="&#x2022;" glyph-name="bullet" horiz-adv-x="301" d="M112 156T85 182T58 248Q58 286 85 312T151 339Q189 339 215 313T242 248Q242 209 216 183T151 156Q112 156 85 182Z" />
<glyph unicode="&#x2039;" glyph-name="guilsinglleft" horiz-adv-x="304" d="M61 189Q57 193 57 201Q57 208 61 212L235 361Q235 362 237 362Q239 362 241 360T242 356L112 201L242 46Q243 44 240 41T235 40L61 189Z" />
<glyph unicode="&#x203a;" glyph-name="guilsinglright" horiz-adv-x="304" d="M243 212Q248 207 248 201Q248 194 243 189L69 40Q69 39 67 39Q65 39 63 41T62 46L192 200L62 356Q61 358 64 361T69 361L243 212Z" />
</font>
</defs>
</svg>
